TORRENTS43.COM

Скачать Охотник за браконьерами (1975) TVRip


Охотник за браконьерами (1975) TVRip
Год выпуска: 1975
Жанр: Детский, Детектив, Приключения

Описание фильма:
Школьник Вася и его маленькая сестра Клаша живут на берегу живописного озера, в котором разводят форель. С помощью своих друзей, собаки Колчана и лошади Стрелки ребята задерживают браконьеров.

Режиссер: Мария Муат
Актеры: Василий Фунтиков, Геннадий Фролов, Саша Кравченко, И.Рогожин, В.Носик, Л.Барабанова, Ю.Горобец

Продолжительность: 01:15:15
Качество видео: TVRip



Видеокодек: DivX 5
Битрейт видео: ~1149 kbps
Размер кадра: 512 x 384
Аудиокодек: MP3, 1 ch
Битрейт аудио: 64 kbps

MediaInfo

Ochotnik_za_brakonjerami.avi
Format : AVI
Format/Info : Audio Video Interleave
File size : 658 MiB
Duration : 1h 15mn
Overall bit rate : 1 223 Kbps
Writing library : VirtualDub build 16250/release

Video
ID : 0
Format : MPEG-4 Visual
Format settings, BVOP : No
Format settings, QPel : No
Format settings, GMC : No warppoints
Format settings, Matrix : Default (H.263)
Codec ID : DX50
Codec ID/Hint : DivX 5
Duration : 1h 15mn
Bit rate : 1 150 Kbps
Width : 512 pixels
Height : 384 pixels
Display aspect ratio : 4:3
Frame rate : 25.000 fps
Color space : YUV
Chroma subsampling : 4:2:0
Bit depth : 8 bits
Scan type : Progressive
Compression mode : Lossy
Bits/(Pixel*Frame) : 0.234
Stream size : 619 MiB (94%)
Writing library : DivX 5.2.1 (DrDivX 106) (UTC 2004-09-08)

Audio
ID : 1
Format : MPEG Audio
Format version : Version 1
Format profile : Layer 3
Codec ID : 55
Codec ID/Hint : MP3
Duration : 1h 15mn
Bit rate mode : Constant
Bit rate : 64.0 Kbps
Channel count : 1 channel
Sampling rate : 48.0 KHz
Compression mode : Lossy
Stream size : 34.4 MiB (5%)
Alignment : Split accross interleaves
Interleave, duration : 40 ms (1.00 video frame)
Interleave, preload duration : 500 ms
Скриншоты:


Детали торрента:
Название:Охотник за браконьерами (1975) TVRip
Дата добавления:14 Дек 2013 16:24:47
Размер:658 MB
Раздают:
Качают:0
Форум:Отечественные Фильмы для детей

All rights reserved © 2015-2018