TORRENTS43.COM

Скачать Всмотритесь в это лицо (1972) TVRip


Всмотритесь в это лицо (1972) TVRip
Год выпуска: 01:41:52
Жанр: Детский, Приключения

Описание фильма:
Школьники Никита и Ромка мечтают совершить героический поступок. Однажды в газете они увидели фотографию "преступника" и лаконичное "сообщение" о совершенном им "преступлении". Ребята отправляются на его розыски.

Режиссер: Юрий Мастюгин
Актеры: Алеша Сапарев, Александр Елистратов, Виктор Байков, Ивер Кирст, Ирина Гольцова, В. Коннов, Татьяна Васильева, Ира Калиничева, Виктор Уральский, Зинаида Воркуль, Валентин Черняк, А. Карпенко

Продолжительность: 1972
Качество видео: TVRip



Видеокодек: Xvid
Битрейт видео: ~1855 kbps
Размер кадра: 688 x 512
Аудиокодек: MP3, 2 ch
Битрейт аудио: 192 kbps

MediaInfo

Vsmotrites_v_eto_lico.avi
Format : AVI
Format/Info : Audio Video Interleave
File size : 1.46 GiB
Duration : 1h 41mn
Overall bit rate : 2 057 Kbps
Writing application : VirtualDubModRus 1.5.10.2 (build 2542/release)
Writing library : VirtualDubMod build 2542/release

Video
ID : 0
Format : MPEG-4 Visual
Format profile : Advanced Simple@L5
Format settings, BVOP : Yes
Format settings, QPel : No
Format settings, GMC : No warppoints
Format settings, Matrix : Default (MPEG)
Codec ID : XVID
Codec ID/Hint : XviD
Duration : 1h 41mn
Bit rate : 1 855 Kbps
Width : 688 pixels
Height : 512 pixels
Display aspect ratio : 4:3
Frame rate : 25.000 fps
Color space : YUV
Chroma subsampling : 4:2:0
Bit depth : 8 bits
Scan type : Progressive
Compression mode : Lossy
Bits/(Pixel*Frame) : 0.211
Stream size : 1.32 GiB (90%)
Writing library : XviD 64

Audio
ID : 1
Format : MPEG Audio
Format version : Version 1
Format profile : Layer 3
Codec ID : 55
Codec ID/Hint : MP3
Duration : 1h 41mn
Bit rate mode : Constant
Bit rate : 192 Kbps
Channel count : 2 channels
Sampling rate : 48.0 KHz
Compression mode : Lossy
Stream size : 140 MiB (9%)
Alignment : Aligned on interleaves
Interleave, duration : 40 ms (1.00 video frame)
Interleave, preload duration : 504 ms
Writing library : LAME3.97
Encoding settings : -m s -V 4 -q 1 -b 192
Скриншоты:


Детали торрента:
Название:Всмотритесь в это лицо (1972) TVRip
Дата добавления:14 Дек 2013 17:48:45
Размер:1,46 GB
Раздают:
Качают:0
Форум:Отечественные Фильмы для детей

All rights reserved © 2015-2018