TORRENTS43.COM

Скачать Как я был самостоятельным (1987) DVDRip


Как я был самостоятельным (1987) DVDRip
Год выпуска: 1987
Жанр: Детский

Описание фильма:
По мотивам одноименного рассказа Юрия Сотника.
Ладо очень хотелось доказать ребятам, что он "самостоятельный мужчина". Как-то раз его оставили одного в квартире. И Ладо пригласил товарищей по играм репетировать спектакль "дворового театра" к себе домой. В ход пошла мамина косметика, из оконных штор сделали занавес, а деревянного игрушечного коня переделали в козла. Теперь ребята смогли убедиться в "самостоятельности" Ладо.

Режиссер: Евгений Радкевич
Актеры: Владимир Алекси-Месхишвили, Наталия Шанецкая, Ярослав Есиновский, Анастасия Бурлакова, Сергей Флегонтов, Дарья Шадрина, Владимир Толубаев, Тарас Сапрыкин, Александр Асланов, Рамиз Салимов, Надежда Зуева, Этери Шотадзе, Абесалом Лория

Продолжительность: 00:17:46
Качество видео: DVDRip



Видеокодек: Xvid
Битрейт видео: ~2497 Кбит/сек
Размер кадра: 720x576
Аудиокодек: MP3, 2 ch
Битрейт аудио: 192 Кбит/сек

MediaInfo:

Общее
Полное имя : E:\3Этап\Как я был самостоятельным\Как я был самостоятельным (1987) DVDRip.avi
Формат : AVI
Формат/Информация : Audio Video Interleave
Размер файла : 343 Мбайт
Продолжительность : 17 м.
Общий поток : 2702 Кбит/сек
Программа кодирования : Lavf51.12.1

Видео
Идентификатор : 0
Формат : xvid
Идентификатор кодека : xvid
Продолжительность : 17 м.
Битрейт : 2497 Кбит/сек
Ширина : 720 пикселей
Высота : 576 пикселей
Соотношение сторон : 5:4
Частота кадров : 25,000 кадров/сек
Стандарт вещания : PAL
Бит/(Пиксели*Кадры) : 0.241
Размер потока : 317 Мбайт (92%)

Аудио
Идентификатор : 1
Формат : MPEG Audio
Версия формата : Version 1
Профиль формата : Layer 3
Режим : Joint stereo
Расширение режима : MS Stereo
Идентификатор кодека : 55
Идентификатор кодека/Подсказка : MP3
Продолжительность : 17 м.
Вид битрейта : Постоянный
Битрейт : 192 Кбит/сек
Каналы : 2 канала
Частота : 48,0 КГц
Метод сжатия : С потерями
Размер потока : 24,4 Мбайт (7%)
Выравнивание : Соединение по промежуткам
Продолжительность промежутка : 24 мс. (0,60 видеокадр)
Время предзагрузки промежутка : 24 мс.
Скриншоты:




Детали торрента:
Название:Как я был самостоятельным (1987) DVDRip
Дата добавления:14 Дек 2013 22:53:39
Размер:343 MB
Раздают:
Качают:0
Форум:Отечественные Фильмы для детей

All rights reserved © 2015-2018