TORRENTS43.COM

Скачать Девять писем одного года (1975) TVRip


Девять писем одного года (1975) TVRip
Год выпуска: 1975
Жанр: Научно-публицистический

Описание фильма:
Этот фильм основан на реальных событиях, произошедших с сызранским школьником Толей Черепащуком, опубликованных в 1958 году в очерке А.Аграновского "Комета Черепащука". Текст писем даётся с небольшими сокращениеми.

Режиссер: Семен Райтбурт
Актеры: А.Пресняков, А.Черепащук

Продолжительность: 00:17:15
Качество видео: TVRip



Видеокодек: DivX 5
Битрейт видео: ~2201 Кбит/сек
Размер кадра: 688x528
Аудиокодек: MP3, 1 ch
Битрейт аудио: 128 Кбит/сек

MediaInfo:

Общее
Полное имя : E:\3Этап\Девять писем одного года\Девять писем одного года (1975) TVRip.avi
Формат : AVI
Формат/Информация : Audio Video Interleave
Размер файла : 288 Мбайт
Продолжительность : 17 м.
Общий поток : 2338 Кбит/сек
Программа кодирования : VirtualDubMod 1.5.10.2 (build 2542/release)
Библиотека кодирования : VirtualDubMod build 2542/release

Видео
Идентификатор : 0
Формат : MPEG-4 Visual
Параметр BVOP формата : 2
Параметр QPel формата : Нет
Параметр GMC формата : Без точки перехода
Параметр матрицы формата : Default (H.263)
Режим смешивания : Сжатый битовый поток
Идентификатор кодека : DX50
Идентификатор кодека/Подсказка : DivX 5
Продолжительность : 17 м.
Битрейт : 2201 Кбит/сек
Ширина : 688 пикселей
Высота : 528 пикселей
Соотношение сторон : 5:4
Соотношение сторон в оригинале : 4:3
Частота кадров : 25,000 кадров/сек
Цветовое пространство : YUV
Субдискретизация насыщенности : 4:2:0
Битовая глубина : 8 бит
Тип развёртки : Прогрессивная
Метод сжатия : С потерями
Бит/(Пиксели*Кадры) : 0.242
Размер потока : 271 Мбайт (94%)
Библиотека кодирования : DivX 6.8.3-6.8.4 (UTC 2008-06-07)

Аудио
Идентификатор : 1
Формат : MPEG Audio
Версия формата : Version 1
Профиль формата : Layer 3
Идентификатор кодека : 55
Идентификатор кодека/Подсказка : MP3
Продолжительность : 17 м.
Вид битрейта : Постоянный
Битрейт : 128 Кбит/сек
Каналы : 1 канал
Частота : 44,1 КГц
Метод сжатия : С потерями
Размер потока : 15,8 Мбайт (5%)
Выравнивание : Разделение по промежуткам
Продолжительность промежутка : 40 мс. (1,00 видеокадр)
Время предзагрузки промежутка : 500 мс.
Библиотека кодирования : LAME3.97
Настройки программы : -m m -V 4 -q 0 -b 128
Скриншоты:




Детали торрента:
Название:Девять писем одного года (1975) TVRip
Дата добавления:14 Дек 2013 23:20:30
Размер:288 MB
Раздают:
Качают:0
Форум:Отечественные Фильмы для детей

All rights reserved © 2015-2018