TORRENTS43.COM

Скачать Живая радуга (1985) DVD5


Живая радуга (1985) DVD5
Год выпуска: 1985
Жанр: Драма, детский, семейный

Описание фильма: По мотивам произведений писателя Николая Носова. Каждое утро первоклассники Миша и Катя вместе идут в школу, где учительница Мария Сергеевна учит их любить и понимать природу. Она водит школьников в заповедник, там они наблюдают за жизнью лесных зверей. Однажды под колесами автомобиля погибает любимая Мишина утка-наседка Чернушка. Чтобы спасти будущих утят, мальчик вместе с отцом соорудил инкубатор. Дети почти месяц следили за температурой в инкубаторе, и настал день, когда девять птенцов увидели свет...

Режиссер: Наталья Бондарчук
Актеры: Рома Генералов, Екатерина Лычева, Лиза Волкова, Николай Бурляев, Наталья Бондарчук, Инна Макарова, Стефания Станюта

Продолжительность: 01:04:20
Качество видео: DVD5



Видеокодек: MPEG-2
Битрейт видео: ~ 7009 Кбит/сек
Размер кадра: 720x576
Аудиокодек: AC3, 2.0
Битрейт аудио: 192 Кбит/сек

DVDInfo:

Title: Живая радуга (1985) DVD5
Size: 3.29 Gb ( 3 447 196,00 KBytes ) - DVD-5
Enabled regions: 1, 2, 3, 4, 5, 6, 7, 8

VTS_01 :
Play Length: 00:00:18+01:04:12
Video: PAL 4:3 (720x576) VBR
Audio:
Russian (Dolby AC3, 2 ch)

* Menus Information *

VIDEO_TS Menu
Video:
NTSC 4:3 (720x480) VBR
Auto Pan&Scan, Auto Letterboxed
Language Unit :

VTS_01 Menu
Video:
PAL 4:3 (720x576) VBR
Russian Language Unit :
Root Menu
Chapter (PTT) Menu

MenuDVD:

MediaInfo:

Общее
Полное имя : E:\3Этап\Подг\Живая радуга\Живая радуга (1985) DVD5\VIDEO_TS\VTS_01_1.VOB
Формат : MPEG-PS
Размер файла : 1024 Мбайт
Продолжительность : 19 м.
Режим общего битрейта : Переменный
Общий поток : 7348 Кбит/сек

Видео
Идентификатор : 224 (0xE0)
Формат : MPEG Video
Версия формата : Version 2
Профиль формата : Main@Main
Параметр BVOP формата : Да
Параметр матрицы формата : Выборочная
Параметр GOP формата : M=3, N=15
Продолжительность : 19 м.
Вид битрейта : Переменный
Битрейт : 7009 Кбит/сек
Максимальный битрейт : 8000 Кбит/сек
Ширина : 720 пикселей
Высота : 576 пикселей
Соотношение сторон : 4:3
Частота кадров : 25,000 кадров/сек
Стандарт вещания : PAL
Цветовое пространство : YUV
Субдискретизация насыщенности : 4:2:0
Битовая глубина : 8 бит
Метод сжатия : С потерями
Бит/(Пиксели*Кадры) : 0.676
Размер потока : 977 Мбайт (95%)

Аудио
Идентификатор : 189 (0xBD)-128 (0x80)
Формат : AC-3
Формат/Информация : Audio Coding 3
Расширение режима : CM (complete main)
Параметр Endianness формата : Big
Режим смешивания : DVD-Video
Продолжительность : 19 м.
Вид битрейта : Постоянный
Битрейт : 192 Кбит/сек
Каналы : 2 канала
Расположение каналов : Front: L R
Частота : 48,0 КГц
Битовая глубина : 16 бит
Метод сжатия : С потерями
Задержка видео : -50 мс.
Размер потока : 26,7 Мбайт (3%)

Меню
Скриншоты:




Детали торрента:
Название:Живая радуга (1985) DVD5
Дата добавления:15 Дек 2013 12:59:31
Размер:3,29 GB
Раздают:
Качают:0
Форум:Отечественные Фильмы для детей

All rights reserved © 2015-2018