TORRENTS43.COM

Скачать Железная принцесса (1988) SATRip


Железная принцесса (1988) SATRip
Год выпуска: 1988
Производство: CCCР, Литовская киностудия
Жанр: Детский, Музыкальный, Сказка

Описание фильма:
Музыкальный фильм-сказка для детей о том, как важно беречь сердце от равнодушия и лени. Герои фильма стараются стать лучше, добрее, и в этом им помогает добрый старый Гном.

Режиссер: Альгирдас Араминас
Актеры: А. Жалакявичуте, М. Гинейис, Л. Климавичус, В. Коханските, М. Агу, В. Светлов, Й. Пакулис, М. Стасюлите, М. Станкявичус, И. Гедзявичус, И. Вегеле

Продолжительность: 01:03:25
Качество видео: SATRip
Перевод: Профессиональный многоголосый, закадровый



Видеокодек: Xvid
Битрейт видео: ~1332 Кбит/сек
Размер кадра: 576x432
Аудиокодек: MP3, 2 ch
Битрейт аудио: 112 Кбит/сек

MediaInfo:

Общее
Полное имя : E:\3Этап\Железная принцесса\Железная принцесса (1988) SATRip.avi
Формат : AVI
Формат/Информация : Audio Video Interleave
Размер файла : 660 Мбайт
Продолжительность : 1 ч. 3 м.
Общий поток : 1454 Кбит/сек
Программа кодирования : VirtualDubMod 1.5.10.2 (build 2540/release)
Библиотека кодирования : VirtualDubMod build 2540/release

Видео
Идентификатор : 0
Формат : MPEG-4 Visual
Профиль формата : Advanced Simple@L5
Параметр BVOP формата : 4
Параметр QPel формата : Нет
Параметр GMC формата : Без точки перехода
Параметр матрицы формата : Default (MPEG)
Идентификатор кодека : XVID
Идентификатор кодека/Подсказка : XviD
Продолжительность : 1 ч. 3 м.
Битрейт : 1332 Кбит/сек
Ширина : 576 пикселей
Высота : 432 пикселя
Соотношение сторон : 5:4
Соотношение сторон в оригинале : 4:3
Частота кадров : 25,000 кадров/сек
Цветовое пространство : YUV
Субдискретизация насыщенности : 4:2:0
Битовая глубина : 8 бит
Тип развёртки : Прогрессивная
Метод сжатия : С потерями
Бит/(Пиксели*Кадры) : 0.214
Размер потока : 604 Мбайт (92%)
Библиотека кодирования : XviD 1.1.2 (UTC 2006-11-01)

Аудио
Идентификатор : 1
Формат : MPEG Audio
Версия формата : Version 1
Профиль формата : Layer 3
Режим : Joint stereo
Расширение режима : MS Stereo
Идентификатор кодека : 55
Идентификатор кодека/Подсказка : MP3
Продолжительность : 1 ч. 3 м.
Вид битрейта : Постоянный
Битрейт : 112 Кбит/сек
Каналы : 2 канала
Частота : 48,0 КГц
Метод сжатия : С потерями
Размер потока : 50,8 Мбайт (8%)
Выравнивание : Разделение по промежуткам
Продолжительность промежутка : 39 мс. (0,99 видеокадр)
Время предзагрузки промежутка : 500 мс.
Скриншоты:




Детали торрента:
Название:Железная принцесса (1988) SATRip
Дата добавления:15 Дек 2013 13:08:36
Размер:660 MB
Раздают:
Качают:0
Форум:Отечественные Фильмы для детей

All rights reserved © 2015-2018