TORRENTS43.COM

Скачать Хорезмийская легенда (1978) SATRip


Хорезмийская легенда (1978) SATRip
Год выпуска: 1978
Производство: СССР, Узбекфильм
Жанр: Сказка

Описание фильма:
По мотивам узбекских народных сказок.
Конец XIII века. В Хиве правит жестокий Хан, пожелавший взять в жены красавицу Марику — невесту скорняка Максута, отважного джигита. Чтобы избавиться от Максута, Хан отправляет его искать хорезмийских мастеров, угнанных когда-то в рабство. Им предстоит построить новый дворец своему Хану в Хиве.

Режиссер: Ю.Степчук
Актеры: Р. Туляганов, Ульмас Алиходжаев, Сайрам Исаева, Наби Рахимов, Джавлон Хамраев, Тамара Шакирова

Продолжительность: 02:07:34
Качество видео: SATRip



Видеокодек: DivX 5
Битрейт видео: ~1700 Кбит/сек
Размер кадра: 656x496
Аудиокодек: MP3, 2 ch
Битрейт аудио: 128 Кбит/сек

MediaInfo:

Общее
Полное имя : E:\3Этап\Хорезмийская легенда\Хорезмийская легенда (1978) SATRip.avi
Формат : AVI
Формат/Информация : Audio Video Interleave
Размер файла : 1,64 Гбайт
Продолжительность : 2 ч. 7 м.
Общий поток : 1838 Кбит/сек
Библиотека кодирования : VirtualDub build 15654/release

Видео
Идентификатор : 0
Формат : MPEG-4 Visual
Параметр BVOP формата : 1
Параметр QPel формата : Нет
Параметр GMC формата : Без точки перехода
Параметр матрицы формата : Default (H.263)
Режим смешивания : Сжатый битовый поток
Идентификатор кодека : DX50
Идентификатор кодека/Подсказка : DivX 5
Продолжительность : 2 ч. 7 м.
Битрейт : 1700 Кбит/сек
Ширина : 656 пикселей
Высота : 496 пикселей
Соотношение сторон : 4:3
Частота кадров : 25,000 кадров/сек
Цветовое пространство : YUV
Субдискретизация насыщенности : 4:2:0
Битовая глубина : 8 бит
Тип развёртки : Прогрессивная
Метод сжатия : С потерями
Бит/(Пиксели*Кадры) : 0.209
Размер потока : 1,52 Гбайт (93%)
Библиотека кодирования : DivX 6.1.1 (UTC 2006-02-01)

Аудио
Идентификатор : 1
Формат : MPEG Audio
Версия формата : Version 1
Профиль формата : Layer 3
Режим : Dual mono
Идентификатор кодека : 55
Идентификатор кодека/Подсказка : MP3
Продолжительность : 2 ч. 7 м.
Вид битрейта : Постоянный
Битрейт : 128 Кбит/сек
Каналы : 2 канала
Частота : 44,1 КГц
Метод сжатия : С потерями
Размер потока : 117 Мбайт (7%)
Выравнивание : Разделение по промежуткам
Продолжительность промежутка : 40 мс. (1,00 видеокадр)
Время предзагрузки промежутка : 500 мс.
Скриншоты:




Детали торрента:
Название:Хорезмийская легенда (1978) SATRip
Дата добавления:15 Дек 2013 13:17:41
Размер:1,64 GB
Раздают:
Качают:0
Форум:Отечественные Фильмы для детей

All rights reserved © 2015-2018