TORRENTS43.COM

Скачать Великие голодранцы (1973) SATRip


Великие голодранцы (1973) SATRip
Год выпуска: 1973
Жанр: Драма

Описание фильма:
По мотивам одноименного романа Ф.Наседкина. Молодая советская республика, 1927 год. Батрацкий сын Филипп Касаткин (Виктор Жуков) вступил в комсомол и начал кипучую деятельность, полную забот, побед и поражений…

Режиссер: Лев Мирский
Актеры: Виктор Жуков, Ольга Гаврилюк, Алла Панова, Александр Степанов, Сергей Гальцев, Раиса Куркина, Владимир Гостюхин, Григорий Абрикосов, Юрий Оськин

Продолжительность: 01:28:45
Качество видео: SATRip



Видеокодек: DivX 5
Битрейт видео: ~2201 Кбит/сек
Размер кадра: 696x552
Аудиокодек: MP3, 1 ch
Битрейт аудио: 112 Кбит/сек

MediaInfo:

Общее
Полное имя : E:\3Этап\Великие голодранцы\Великие голодранцы (1973) SATRip.avi
Формат : AVI
Формат/Информация : Audio Video Interleave
Размер файла : 1,44 Гбайт
Продолжительность : 1 ч. 28 м.
Общий поток : 2323 Кбит/сек
Программа кодирования : VirtualDubMod 1.5.10.2 (build 2542/release)
Библиотека кодирования : VirtualDubMod build 2542/release

Видео
Идентификатор : 0
Формат : MPEG-4 Visual
Параметр BVOP формата : 1
Параметр QPel формата : Нет
Параметр GMC формата : Без точки перехода
Параметр матрицы формата : Default (H.263)
Режим смешивания : Сжатый битовый поток
Идентификатор кодека : DX50
Идентификатор кодека/Подсказка : DivX 5
Продолжительность : 1 ч. 28 м.
Битрейт : 2201 Кбит/сек
Ширина : 696 пикселей
Высота : 552 пикселя
Соотношение сторон : 5:4
Соотношение сторон в оригинале : 5:4
Частота кадров : 25,000 кадров/сек
Цветовое пространство : YUV
Субдискретизация насыщенности : 4:2:0
Битовая глубина : 8 бит
Тип развёртки : Прогрессивная
Метод сжатия : С потерями
Бит/(Пиксели*Кадры) : 0.229
Размер потока : 1,36 Гбайт (95%)
Библиотека кодирования : DivX 6.8.0 (UTC 2007-12-04)

Аудио
Идентификатор : 1
Формат : MPEG Audio
Версия формата : Version 1
Профиль формата : Layer 3
Идентификатор кодека : 55
Идентификатор кодека/Подсказка : MP3
Продолжительность : 1 ч. 28 м.
Вид битрейта : Постоянный
Битрейт : 112 Кбит/сек
Каналы : 1 канал
Частота : 48,0 КГц
Метод сжатия : С потерями
Размер потока : 71,1 Мбайт (5%)
Выравнивание : Соединение по промежуткам
Продолжительность промежутка : 40 мс. (1,00 видеокадр)
Время предзагрузки промежутка : 504 мс.
Библиотека кодирования : LAME3.97
Настройки программы : -m m -V 4 -q 0 -b 112
Скриншоты:




Детали торрента:
Название:Великие голодранцы (1973) SATRip
Дата добавления:15 Дек 2013 13:41:41
Размер:1,44 GB
Раздают:
Качают:0
Форум:Отечественные Фильмы для детей

All rights reserved © 2015-2018