TORRENTS43.COM

Скачать Птичье молоко (1975) SATRip


Птичье молоко (1975) SATRip
Год выпуска: 1975
Производство: СССР, Грузия-фильм
Жанр: Сказка, Детский, Короткометражный

Описание фильма:
По мотивам грузинских народных сказок. Герой фильма - добрый и храбрый мальчик, помогающий людям бороться со злом.

Режиссер: Николай Санишвили
Актеры: Герман Кобахидзе, Л. Долидзе, Сесилия (Цицилия) Такаишвили, Гурам Пирцхалава, Коте (Константин) Даушвили

Продолжительность: 00:44:36
Качество видео: SATRip



Видеокодек: Xvid
Битрейт видео: ~1497 Кбит/сек
Размер кадра: 720x576
Аудиокодек: MP3, 2 ch
Битрейт аудио: 196 Кбит/сек

MediaInfo:

Общее
Полное имя : E:\3Этап\Птичье молоко\Птичье молоко (1976) SATRip.avi
Формат : AVI
Формат/Информация : Audio Video Interleave
Размер файла : 544 Мбайт
Продолжительность : 44 м.
Режим общего битрейта : Переменный
Общий поток : 1706 Кбит/сек
Программа кодирования : MEncoder Sherpya-SVN-r27811-4.2.5
Библиотека кодирования : MPlayer

Видео
Идентификатор : 0
Формат : MPEG-4 Visual
Профиль формата : Simple@L3
Параметр BVOP формата : Нет
Параметр QPel формата : Нет
Параметр GMC формата : Без точки перехода
Параметр матрицы формата : Default (H.263)
Идентификатор кодека : XVID
Идентификатор кодека/Подсказка : XviD
Продолжительность : 44 м.
Битрейт : 1497 Кбит/сек
Ширина : 720 пикселей
Высота : 576 пикселей
Соотношение сторон : 5:4
Частота кадров : 25,000 кадров/сек
Стандарт вещания : PAL
Цветовое пространство : YUV
Субдискретизация насыщенности : 4:2:0
Битовая глубина : 8 бит
Тип развёртки : Прогрессивная
Метод сжатия : С потерями
Бит/(Пиксели*Кадры) : 0.144
Размер потока : 478 Мбайт (88%)
Библиотека кодирования : XviD 1.1.2 (UTC 2006-11-01)

Аудио
Идентификатор : 1
Формат : MPEG Audio
Версия формата : Version 1
Профиль формата : Layer 3
Режим : Joint stereo
Расширение режима : MS Stereo
Идентификатор кодека : 55
Идентификатор кодека/Подсказка : MP3
Продолжительность : 44 м.
Вид битрейта : Переменный
Битрейт : 196 Кбит/сек
Каналы : 2 канала
Частота : 48,0 КГц
Метод сжатия : С потерями
Размер потока : 62,5 Мбайт (11%)
Выравнивание : Соединение по промежуткам
Продолжительность промежутка : 24 мс. (0,60 видеокадр)
Время предзагрузки промежутка : 537 мс.
Скриншоты:




Детали торрента:
Название:Птичье молоко (1975) SATRip
Дата добавления:15 Дек 2013 13:57:53
Размер:544 MB
Раздают:
Качают:0
Форум:Отечественные Фильмы для детей

All rights reserved © 2015-2018