TORRENTS43.COM

Скачать Девушка и море (1981) TVRip


Девушка и море (1981) TVRip
Год выпуска: 1981
Жанр: Музыкальный, Детский

Описание фильма:
По одноименной оперетте украинского композитора Якова Цегляра.
У вчерашней школьницы Веры Береговой есть заветная мечта — посвятить свою жизнь морю. Но девушку не принимают в мореходное училище. Тогда Вера с помощью своих друзей тайком проникает на учебное судно «Товарищ» и вместе со всеми курсантами проходит практическую учебу в море.

Режиссер: Альфред Шестопалов
Актеры: Ирина Лавринова, Юрий Маляров, Игорь Волков, Алексей Тютимов, Ирина Даниленко (II), Станислав Коренев, Геннадий Болотов, Владимир Талашко, Инга Будкевич, Дмитрий Шевцов, Дмитрий Франько, Иван Матвеев.

Продолжительность: 01:05:05
Качество видео: TVRip



Видеокодек: Xvid
Битрейт видео: ~1698 Кбит/сек
Размер кадра: 720x464
Аудиокодек: AC3 2.0
Битрейт аудио: 192 Кбит/сек

MediaInfo:

Общее
Полное имя : E:\3Этап\Девушка и море\Девушка и море (1981) TVRip.avi
Формат : AVI
Формат/Информация : Audio Video Interleave
Размер файла : 884 Мбайт
Продолжительность : 1 ч. 5 м.
Общий поток : 1899 Кбит/сек
Программа кодирования : VirtualDubMod 1.5.10.2 (build 2540/release)
Библиотека кодирования : VirtualDubMod build 2540/release

Видео
Идентификатор : 0
Формат : MPEG-4 Visual
Профиль формата : Advanced Simple@L5
Параметр BVOP формата : 1
Параметр QPel формата : Нет
Параметр GMC формата : Без точки перехода
Параметр матрицы формата : Default (H.263)
Идентификатор кодека : XVID
Идентификатор кодека/Подсказка : XviD
Продолжительность : 1 ч. 5 м.
Битрейт : 1698 Кбит/сек
Ширина : 720 пикселей
Высота : 464 пикселя
Соотношение сторон : 16:10
Частота кадров : 25,000 кадров/сек
Цветовое пространство : YUV
Субдискретизация насыщенности : 4:2:0
Битовая глубина : 8 бит
Тип развёртки : Прогрессивная
Метод сжатия : С потерями
Бит/(Пиксели*Кадры) : 0.203
Размер потока : 790 Мбайт (89%)
Библиотека кодирования : XviD 1.2.0.dev47 (UTC 2006-11-01)

Аудио
Идентификатор : 1
Формат : AC-3
Формат/Информация : Audio Coding 3
Расширение режима : CM (complete main)
Параметр Endianness формата : Big
Идентификатор кодека : 2000
Продолжительность : 1 ч. 5 м.
Вид битрейта : Постоянный
Битрейт : 192 Кбит/сек
Каналы : 2 канала
Расположение каналов : Front: L R
Частота : 48,0 КГц
Битовая глубина : 16 бит
Метод сжатия : С потерями
Размер потока : 89,4 Мбайт (10%)
Выравнивание : Разделение по промежуткам
Продолжительность промежутка : 40 мс. (1,00 видеокадр)
Время предзагрузки промежутка : 500 мс.
Скриншоты:




Детали торрента:
Название:Девушка и море (1981) TVRip
Дата добавления:16 Дек 2013 20:35:11
Размер:884 MB
Раздают:
Качают:0
Форум:Отечественные Фильмы для детей

All rights reserved © 2015-2018