TORRENTS43.COM

Скачать Камертон (1978) TVRip [2 серии]


Камертон (1978) TVRip [2 серии]
Год выпуска: 1978
Производство: СССР, Одесская киностудия
Жанр: Детский

Описание фильма:
Школа, семья, взаимоотношения в классе, первая любовь - проблемы старшеклассников, которые поднимают создатели фильма. В среднюю советскую школу приезжают киношники снимать передовой 9 «А» класс.
9 «А» класс под руководством молодого педагога Клавдии Сергеевны по всем показателям выходил на первые места. Но благополучие это зиждилось на показухе и стукачестве. Постепенно конфликт между классным руководителем и учениками перерос в настоящую войну. Так кто же кому камертон?..

Режиссер: Вилен Новак
Актеры: Елена Шанина, Борис Сабуров, Андрей Ташков, Ирина Корытникова, Василий Фунтиков, Анна Надточий, Артур Сиротинский, Полина Качура, Евгений Иванычев, Сергей Сазонтьев, Люсьена Овчинникова, Г. Потыкалов, М. Пашков, О. Пустовойт

Продолжительность: 01:55:28 (00:55:36+00:59:52)
Качество видео: TVRip



Видеокодек: Xvid
Битрейт видео: ~2001 Кбит/сек
Размер кадра: 640x480
Аудиокодек: MP3, 2 ch
Битрейт аудио: 128 Кбит/сек

MediaInfo:

Общее
Полное имя : E:\3Этап\Камертон\Камертон (1978) TVRip\kamerton.1.avi
Формат : AVI
Формат/Информация : Audio Video Interleave
Размер файла : 852 Мбайт
Продолжительность : 55 м.
Общий поток : 2141 Кбит/сек

Видео
Идентификатор : 0
Формат : MPEG-4 Visual
Профиль формата : Simple@L3
Параметр BVOP формата : Да
Параметр QPel формата : Нет
Параметр GMC формата : Без точки перехода
Параметр матрицы формата : Default (H.263)
Идентификатор кодека : XVID
Идентификатор кодека/Подсказка : XviD
Продолжительность : 55 м.
Битрейт : 2001 Кбит/сек
Ширина : 640 пикселей
Высота : 480 пикселей
Соотношение сторон : 4:3
Частота кадров : 25,000 кадров/сек
Цветовое пространство : YUV
Субдискретизация насыщенности : 4:2:0
Битовая глубина : 8 бит
Тип развёртки : Прогрессивная
Метод сжатия : С потерями
Бит/(Пиксели*Кадры) : 0.261
Размер потока : 796 Мбайт (93%)

Аудио
Идентификатор : 1
Формат : MPEG Audio
Версия формата : Version 1
Профиль формата : Layer 3
Режим : Joint stereo
Расширение режима : MS Stereo
Идентификатор кодека : 55
Идентификатор кодека/Подсказка : MP3
Продолжительность : 55 м.
Вид битрейта : Постоянный
Битрейт : 128 Кбит/сек
Каналы : 2 канала
Частота : 44,1 КГц
Метод сжатия : С потерями
Размер потока : 50,8 Мбайт (6%)
Выравнивание : Соединение по промежуткам
Продолжительность промежутка : 26 мс. (0,65 видеокадр)
Время предзагрузки промежутка : 11 мс.
Библиотека кодирования : LAME3.97

Общее
Полное имя : E:\3Этап\Камертон\Камертон (1978) TVRip\kamerton.2.avi
Формат : AVI
Формат/Информация : Audio Video Interleave
Размер файла : 917 Мбайт
Продолжительность : 59 м.
Общий поток : 2141 Кбит/сек

Видео
Идентификатор : 0
Формат : MPEG-4 Visual
Профиль формата : Simple@L3
Параметр BVOP формата : Да
Параметр QPel формата : Нет
Параметр GMC формата : Без точки перехода
Параметр матрицы формата : Default (H.263)
Идентификатор кодека : XVID
Идентификатор кодека/Подсказка : XviD
Продолжительность : 59 м.
Битрейт : 2001 Кбит/сек
Ширина : 640 пикселей
Высота : 480 пикселей
Соотношение сторон : 4:3
Частота кадров : 25,000 кадров/сек
Цветовое пространство : YUV
Субдискретизация насыщенности : 4:2:0
Битовая глубина : 8 бит
Тип развёртки : Прогрессивная
Метод сжатия : С потерями
Бит/(Пиксели*Кадры) : 0.261
Размер потока : 857 Мбайт (93%)

Аудио
Идентификатор : 1
Формат : MPEG Audio
Версия формата : Version 1
Профиль формата : Layer 3
Режим : Joint stereo
Расширение режима : MS Stereo
Идентификатор кодека : 55
Идентификатор кодека/Подсказка : MP3
Продолжительность : 59 м.
Вид битрейта : Постоянный
Битрейт : 128 Кбит/сек
Каналы : 2 канала
Частота : 44,1 КГц
Метод сжатия : С потерями
Размер потока : 54,7 Мбайт (6%)
Выравнивание : Соединение по промежуткам
Продолжительность промежутка : 26 мс. (0,65 видеокадр)
Библиотека кодирования : LAME3.97
Скриншоты:




Детали торрента:
Название:Камертон (1978) TVRip [2 серии]
Дата добавления:16 Дек 2013 22:02:30
Размер:1,73 GB
Раздают:
Качают:0
Форум:Отечественные Фильмы для детей

All rights reserved © 2015-2018