TORRENTS43.COM

Скачать Лютый (1973) DVDRip


Лютый (1973) DVDRip
Год выпуска: 1973
Жанр: Драма

Описание фильма:
По мотивам рассказа Мухтара Ауэзова «Серый Лютый».
События в фильме происходят в начале 20 века. Мальчик, рано оставшийся без родителей, поселяется в доме дяди и, вопреки воле взрослых, берет в дом волчонка. Но постоянная травля окружающих приводит к тому, что мальчик отпускает Лютого на свободу, а сам покидает дядин дом. Проходит время. Мальчик, пожалев дядю, возвращается, а Лютый становится вожаком волчьей стаи.

Режиссер: Толомуш Океев
Актеры: Камбар Валиев, Суйменкул Чокморов, Алиман Джангорозова, Каргамбай Сатаев, Нуржуман Ихтымбаев

Продолжительность: 01:32:14
Качество видео: DVDRip
Перевод: Дублированный



Видеокодек: DivX 5
Битрейт видео: ~3997 Кбит/сек
Размер кадра: 720x576
Аудиокодек: MP3, 2 ch
Битрейт аудио: 128 Кбит/сек
Аудио 1: MP3, 2 ch, 128 Кбит/сек - казахский
Аудио 2: MP3, 2 ch, 128 Кбит/сек - русский

MediaInfo:

Общее
Полное имя : E:\3Этап\Лютый 1973\Лютый (1973) DVDRip.avi
Формат : DivX
Формат/Информация : Hack of AVI
Размер файла : 2,75 Гбайт
Продолжительность : 1 ч. 32 м.
Общий поток : 4268 Кбит/сек

Видео
Идентификатор : 0
Формат : MPEG-4 Visual
Параметр BVOP формата : 1
Параметр QPel формата : Нет
Параметр GMC формата : Без точки перехода
Параметр матрицы формата : Default (H.263)
Режим смешивания : Сжатый битовый поток
Идентификатор кодека : DX50
Идентификатор кодека/Подсказка : DivX 5
Продолжительность : 1 ч. 32 м.
Битрейт : 3997 Кбит/сек
Ширина : 720 пикселей
Высота : 576 пикселей
Соотношение сторон : 4:3
Частота кадров : 25,000 кадров/сек
Стандарт вещания : PAL
Цветовое пространство : YUV
Субдискретизация насыщенности : 4:2:0
Битовая глубина : 8 бит
Тип развёртки : Прогрессивная
Метод сжатия : С потерями
Бит/(Пиксели*Кадры) : 0.386
Размер потока : 2,58 Гбайт (94%)
Заголовок : Video
Библиотека кодирования : DivX 2151

Аудио #1
Идентификатор : 1
Формат : MPEG Audio
Версия формата : Version 1
Профиль формата : Layer 3
Идентификатор кодека : 55
Идентификатор кодека/Подсказка : MP3
Продолжительность : 1 ч. 32 м.
Вид битрейта : Постоянный
Битрейт : 128 Кбит/сек
Каналы : 2 канала
Частота : 48,0 КГц
Метод сжатия : С потерями
Размер потока : 84,5 Мбайт (3%)
Выравнивание : Разделение по промежуткам
Продолжительность промежутка : 40 мс. (1,00 видеокадр)
Время предзагрузки промежутка : 500 мс.
Заголовок : Audio

Аудио #2
Идентификатор : 2
Формат : MPEG Audio
Версия формата : Version 1
Профиль формата : Layer 3
Идентификатор кодека : 55
Идентификатор кодека/Подсказка : MP3
Продолжительность : 1 ч. 32 м.
Вид битрейта : Постоянный
Битрейт : 128 Кбит/сек
Каналы : 2 канала
Частота : 48,0 КГц
Метод сжатия : С потерями
Размер потока : 84,5 Мбайт (3%)
Выравнивание : Разделение по промежуткам
Продолжительность промежутка : 40 мс. (1,00 видеокадр)
Время предзагрузки промежутка : 500 мс.
Заголовок : Audio

Текст
Идентификатор : 3
Формат : DivX Subtitle
Идентификатор кодека : DXSB
Идентификатор кодека/Информация : Subtitle in AVI from DivX networks
Ширина : 640 пикселей
Высота : 480 пикселей
Битовая глубина : 4 бит
Размер потока : 55,0 байт (0%)
Заголовок : Subtitle
Скриншоты:




Смотреть Online

http://moonwalk.cc/serial/0ae87d1fab08cafac3b52bb9b7e39b4a/iframe
Детали торрента:
Название:Лютый (1973) DVDRip
Дата добавления:16 Дек 2013 22:13:01
Размер:2,75 GB
Раздают:
Качают:0
Форум:Отечественные Фильмы для детей

All rights reserved © 2015-2018