TORRENTS43.COM

Скачать Engelbert Humperdinck - Энгельберт Хампердинк (1978) [FLAC 2.0 24/192|traks(Vinyl-Rip)]<Pop, Schlager>


Engelbert Humperdinck - Энгельберт Хампердинк (1978)
Год: 1978
Жанр: Pop, Schlager
Продолжительность: 00:39:18

Кодек: FLAC 2.0

Треклист:
Сторона 1
1. Освободи меня (Release Me) 3:20
2. Возьми мое сердце (Take My Heart) 2:28
3. Мой мир (My World Aka Il Mondo) 3:08
4. Велосипедисты (Les Bicyclettes De Belsize) 3:14
5. Мужчина без любви (A Man Without Love) 3:22
6. Не могу отвести от тебя глаз (Can't Take My Eyes Off Of You) 3:38
Сторона 2
1. Так это было (The Way It Used To Be) 3:10
2. Другое время, другое место (Another Time, Another Place) 3:00
3. Вовремя (In Time) 3:14
4. Песня о жизни (Life Goes On) 2:40
5. Последний вальс (The Last Waltz) 2:56
6. Десять гитар (Ten Guitars) 2:38
7. Тень твоей улыбки (The Shadow Of Your Smile) 2:30

Дополнительная информация:

© Мелодия.
© Всесоюзная студия грамзаписи.
© Ленинградский ЗГ. С 60—05377—78, 1978 г.
Пластинка очищена по собственной методе.
Оцифровка собственная - стерео 24/192.
Воспроизведение - Denon DP-45F, картридж Grado Reference Sonata, фонокорректор JOLIDA JD 9, межблочник XLOHTPro.
Запись - АЦП E-MU 1616m PCIe, WaveLab 6.
Обработка одиночных щелчков - iZotope RX3.

Отчет MediaInfo:

Код:

Общее
Полное имя                               : D:\Раздачи\Pop\Engelbert Humperdinck\Энгельберт Хампердинк\01. Освободи меня.flac
Формат                                   : FLAC
Формат/Информация                        : Free Lossless Audio Codec
Размер файла                             : 125 Мбайт
Продолжительность                        : 3 м. 20 с.
Режим общего битрейта                    : Переменный
Общий поток                              : 5236 Кбит/сек

Аудио
Формат                                   : FLAC
Формат/Информация                        : Free Lossless Audio Codec
Продолжительность                        : 3 м. 20 с.
Вид битрейта                             : Переменный
Битрейт                                  : 5235 Кбит/сек
Каналы                                   : 2 канала
Частота                                  : 192 КГц
Битовая глубина                          : 24 бит
Размер потока                            : 125 Мбайт (100%)
Библиотека кодирования                   : libFLAC 1.2.1 (UTC 2007-09-17)

Общее
Полное имя                               : D:\Раздачи\Pop\Engelbert Humperdinck\Энгельберт Хампердинк\02. Возьми мое сердце.flac
Формат                                   : FLAC
Формат/Информация                        : Free Lossless Audio Codec
Размер файла                             : 93,0 Мбайт
Продолжительность                        : 2 м. 28 с.
Режим общего битрейта                    : Переменный
Общий поток                              : 5271 Кбит/сек

Аудио
Формат                                   : FLAC
Формат/Информация                        : Free Lossless Audio Codec
Продолжительность                        : 2 м. 28 с.
Вид битрейта                             : Переменный
Битрейт                                  : 5270 Кбит/сек
Каналы                                   : 2 канала
Частота                                  : 192 КГц
Битовая глубина                          : 24 бит
Размер потока                            : 93,0 Мбайт (100%)
Библиотека кодирования                   : libFLAC 1.2.1 (UTC 2007-09-17)

Общее
Полное имя                               : D:\Раздачи\Pop\Engelbert Humperdinck\Энгельберт Хампердинк\03. Мой мир.flac
Формат                                   : FLAC
Формат/Информация                        : Free Lossless Audio Codec
Размер файла                             : 119 Мбайт
Продолжительность                        : 3 м. 8 с.
Режим общего битрейта                    : Переменный
Общий поток                              : 5292 Кбит/сек

Аудио
Формат                                   : FLAC
Формат/Информация                        : Free Lossless Audio Codec
Продолжительность                        : 3 м. 8 с.
Вид битрейта                             : Переменный
Битрейт                                  : 5292 Кбит/сек
Каналы                                   : 2 канала
Частота                                  : 192 КГц
Битовая глубина                          : 24 бит
Размер потока                            : 119 Мбайт (100%)
Библиотека кодирования                   : libFLAC 1.2.1 (UTC 2007-09-17)

Общее
Полное имя                               : D:\Раздачи\Pop\Engelbert Humperdinck\Энгельберт Хампердинк\04. Велосипедисты.flac
Формат                                   : FLAC
Формат/Информация                        : Free Lossless Audio Codec
Размер файла                             : 120 Мбайт
Продолжительность                        : 3 м. 14 с.
Режим общего битрейта                    : Переменный
Общий поток                              : 5169 Кбит/сек

Аудио
Формат                                   : FLAC
Формат/Информация                        : Free Lossless Audio Codec
Продолжительность                        : 3 м. 14 с.
Вид битрейта                             : Переменный
Битрейт                                  : 5168 Кбит/сек
Каналы                                   : 2 канала
Частота                                  : 192 КГц
Битовая глубина                          : 24 бит
Размер потока                            : 120 Мбайт (100%)
Библиотека кодирования                   : libFLAC 1.2.1 (UTC 2007-09-17)

Общее
Полное имя                               : D:\Раздачи\Pop\Engelbert Humperdinck\Энгельберт Хампердинк\05. Мужчина без любви.flac
Формат                                   : FLAC
Формат/Информация                        : Free Lossless Audio Codec
Размер файла                             : 126 Мбайт
Продолжительность                        : 3 м. 22 с.
Режим общего битрейта                    : Переменный
Общий поток                              : 5237 Кбит/сек

Аудио
Формат                                   : FLAC
Формат/Информация                        : Free Lossless Audio Codec
Продолжительность                        : 3 м. 22 с.
Вид битрейта                             : Переменный
Битрейт                                  : 5237 Кбит/сек
Каналы                                   : 2 канала
Частота                                  : 192 КГц
Битовая глубина                          : 24 бит
Размер потока                            : 126 Мбайт (100%)
Библиотека кодирования                   : libFLAC 1.2.1 (UTC 2007-09-17)

Общее
Полное имя                               : D:\Раздачи\Pop\Engelbert Humperdinck\Энгельберт Хампердинк\06. Не могу отвести от тебя глаз.flac
Формат                                   : FLAC
Формат/Информация                        : Free Lossless Audio Codec
Размер файла                             : 133 Мбайт
Продолжительность                        : 3 м. 38 с.
Режим общего битрейта                    : Переменный
Общий поток                              : 5105 Кбит/сек

Аудио
Формат                                   : FLAC
Формат/Информация                        : Free Lossless Audio Codec
Продолжительность                        : 3 м. 38 с.
Вид битрейта                             : Переменный
Битрейт                                  : 5104 Кбит/сек
Каналы                                   : 2 канала
Частота                                  : 192 КГц
Битовая глубина                          : 24 бит
Размер потока                            : 133 Мбайт (100%)
Библиотека кодирования                   : libFLAC 1.2.1 (UTC 2007-09-17)

Общее
Полное имя                               : D:\Раздачи\Pop\Engelbert Humperdinck\Энгельберт Хампердинк\07. Так это было.flac
Формат                                   : FLAC
Формат/Информация                        : Free Lossless Audio Codec
Размер файла                             : 115 Мбайт
Продолжительность                        : 3 м. 10 с.
Режим общего битрейта                    : Переменный
Общий поток                              : 5070 Кбит/сек

Аудио
Формат                                   : FLAC
Формат/Информация                        : Free Lossless Audio Codec
Продолжительность                        : 3 м. 10 с.
Вид битрейта                             : Переменный
Битрейт                                  : 5070 Кбит/сек
Каналы                                   : 2 канала
Частота                                  : 192 КГц
Битовая глубина                          : 24 бит
Размер потока                            : 115 Мбайт (100%)
Библиотека кодирования                   : libFLAC 1.2.1 (UTC 2007-09-17)

Общее
Полное имя                               : D:\Раздачи\Pop\Engelbert Humperdinck\Энгельберт Хампердинк\08. Другое время, другое место.flac
Формат                                   : FLAC
Формат/Информация                        : Free Lossless Audio Codec
Размер файла                             : 114 Мбайт
Продолжительность                        : 3 м. 0 с.
Режим общего битрейта                    : Переменный
Общий поток                              : 5316 Кбит/сек

Аудио
Формат                                   : FLAC
Формат/Информация                        : Free Lossless Audio Codec
Продолжительность                        : 3 м. 0 с.
Вид битрейта                             : Переменный
Битрейт                                  : 5315 Кбит/сек
Каналы                                   : 2 канала
Частота                                  : 192 КГц
Битовая глубина                          : 24 бит
Размер потока                            : 114 Мбайт (100%)
Библиотека кодирования                   : libFLAC 1.2.1 (UTC 2007-09-17)

Общее
Полное имя                               : D:\Раздачи\Pop\Engelbert Humperdinck\Энгельберт Хампердинк\09. Вовремя.flac
Формат                                   : FLAC
Формат/Информация                        : Free Lossless Audio Codec
Размер файла                             : 116 Мбайт
Продолжительность                        : 3 м. 14 с.
Режим общего битрейта                    : Переменный
Общий поток                              : 5008 Кбит/сек

Аудио
Формат                                   : FLAC
Формат/Информация                        : Free Lossless Audio Codec
Продолжительность                        : 3 м. 14 с.
Вид битрейта                             : Переменный
Битрейт                                  : 5007 Кбит/сек
Каналы                                   : 2 канала
Частота                                  : 192 КГц
Битовая глубина                          : 24 бит
Размер потока                            : 116 Мбайт (100%)
Библиотека кодирования                   : libFLAC 1.2.1 (UTC 2007-09-17)

Общее
Полное имя                               : D:\Раздачи\Pop\Engelbert Humperdinck\Энгельберт Хампердинк\10. Песня о жизни.flac
Формат                                   : FLAC
Формат/Информация                        : Free Lossless Audio Codec
Размер файла                             : 94,7 Мбайт
Продолжительность                        : 2 м. 40 с.
Режим общего битрейта                    : Переменный
Общий поток                              : 4965 Кбит/сек

Аудио
Формат                                   : FLAC
Формат/Информация                        : Free Lossless Audio Codec
Продолжительность                        : 2 м. 40 с.
Вид битрейта                             : Переменный
Битрейт                                  : 4964 Кбит/сек
Каналы                                   : 2 канала
Частота                                  : 192 КГц
Битовая глубина                          : 24 бит
Размер потока                            : 94,7 Мбайт (100%)
Библиотека кодирования                   : libFLAC 1.2.1 (UTC 2007-09-17)

Общее
Полное имя                               : D:\Раздачи\Pop\Engelbert Humperdinck\Энгельберт Хампердинк\11. Последний вальс.flac
Формат                                   : FLAC
Формат/Информация                        : Free Lossless Audio Codec
Размер файла                             : 109 Мбайт
Продолжительность                        : 2 м. 56 с.
Режим общего битрейта                    : Переменный
Общий поток                              : 5207 Кбит/сек

Аудио
Формат                                   : FLAC
Формат/Информация                        : Free Lossless Audio Codec
Продолжительность                        : 2 м. 56 с.
Вид битрейта                             : Переменный
Битрейт                                  : 5206 Кбит/сек
Каналы                                   : 2 канала
Частота                                  : 192 КГц
Битовая глубина                          : 24 бит
Размер потока                            : 109 Мбайт (100%)
Библиотека кодирования                   : libFLAC 1.2.1 (UTC 2007-09-17)

Общее
Полное имя                               : D:\Раздачи\Pop\Engelbert Humperdinck\Энгельберт Хампердинк\12. Десять гитар.flac
Формат                                   : FLAC
Формат/Информация                        : Free Lossless Audio Codec
Размер файла                             : 96,9 Мбайт
Продолжительность                        : 2 м. 38 с.
Режим общего битрейта                    : Переменный
Общий поток                              : 5144 Кбит/сек

Аудио
Формат                                   : FLAC
Формат/Информация                        : Free Lossless Audio Codec
Продолжительность                        : 2 м. 38 с.
Вид битрейта                             : Переменный
Битрейт                                  : 5144 Кбит/сек
Каналы                                   : 2 канала
Частота                                  : 192 КГц
Битовая глубина                          : 24 бит
Размер потока                            : 96,9 Мбайт (100%)
Библиотека кодирования                   : libFLAC 1.2.1 (UTC 2007-09-17)

Общее
Полное имя                               : D:\Раздачи\Pop\Engelbert Humperdinck\Энгельберт Хампердинк\13. Тень твоей улыбки.flac
Формат                                   : FLAC
Формат/Информация                        : Free Lossless Audio Codec
Размер файла                             : 87,8 Мбайт
Продолжительность                        : 2 м. 30 с.
Режим общего битрейта                    : Переменный
Общий поток                              : 4907 Кбит/сек

Аудио
Формат                                   : FLAC
Формат/Информация                        : Free Lossless Audio Codec
Продолжительность                        : 2 м. 30 с.
Вид битрейта                             : Переменный
Битрейт                                  : 4907 Кбит/сек
Каналы                                   : 2 канала
Частота                                  : 192 КГц
Битовая глубина                          : 24 бит
Размер потока                            : 87,7 Мбайт (100%)
Библиотека кодирования                   : libFLAC 1.2.1 (UTC 2007-09-17)
Детали торрента:
Название:Engelbert Humperdinck - Энгельберт Хампердинк (1978) [FLAC 2.0 24/192|traks(Vinyl-Rip)]<Pop, Schlager>
Дата добавления:01 Дек 2015 21:44:47
Размер:1,42 GB
Раздают:
Качают:0
Форум:Vinyl-Rip и Hand-Made

All rights reserved © 2015-2018