TORRENTS43.COM

Скачать Динозавр Герти / Gertie the Dinosaur (1914-1921) DVDRip


Динозавр Герти / Gertie the Dinosaur (1914-1921) DVDRip
Год выпуска: 1914-1921
Жанр: Рисованная анимация, Детский

Описание:
Про большое дружелюбное травоядное животное - динозавра - по имени Герти.

Режиссер: Винзор МакКей
Персонажи: Динозавр Герти

Продолжительность: 00:19:48
Качество видео: DVDRip
Перевод: Без слов / Немой

Видеокодек: Xvid
Битрейт видео: ~2039 kb/s
Размер кадра: 688x528
Аудиокодек: AC3, 2 ch
Битрейт аудио: 224 kb/s

Треклист

01. Динозавр Герти - Gertie the Dinosaur (1914)
02. Герти путешествует - Gertie on Tour (1921)

MediaInfo

Общее
Полное имя : D:\заливка\Динозавр Герти\Dinozavr.Gerti.1914-1921\Dinozavr.Gerti.1914.avi
Формат : AVI
Формат/Информация : Audio Video Interleave
Размер файла : 288 Мбайт
Продолжительность : 17 м.
Общий поток : 2272 Кбит/сек
Название фильма : Winsor McCay - The Master Edition (1911-1921)
Программа кодирования : VirtualDubMod 1.5.10.2 (build 2542/release)
Библиотека кодирования : VirtualDubMod build 2542/release
Правообладатель : ElenaP

Видео
Идентификатор : 0
Формат : MPEG-4 Visual
Профиль формата : Advanced Simple@L5
Параметр BVOP формата : 1
Параметр QPel формата : Нет
Параметр GMC формата : Без точки перехода
Параметр матрицы формата : Default (MPEG)
Идентификатор кодека : XVID
Идентификатор кодека/Подсказка : XviD
Продолжительность : 17 м.
Битрейт : 2039 Кбит/сек
Ширина : 688 пикселей
Высота : 528 пикселей
Соотношение сторон : 4:3
Частота кадров : 23,976 кадра/сек
Цветовое пространство : YUV
Субдискретизация насыщенности : 4:2:0
Битовая глубина : 8 бит
Тип развёртки : Прогрессивная
Метод сжатия : С потерями
Бит/(Пиксели*Кадры) : 0.234
Размер потока : 258 Мбайт (90%)
Библиотека кодирования : XviD 1.2.0.dev47 (UTC 2006-11-01)

Аудио
Идентификатор : 1
Формат : AC-3
Формат/Информация : Audio Coding 3
Расширение режима : CM (complete main)
Параметр Endianness формата : Big
Идентификатор кодека : 2000
Продолжительность : 17 м.
Вид битрейта : Постоянный
Битрейт : 224 Кбит/сек
Каналы : 2 канала
Расположение каналов : Front: L R
Частота : 48,0 КГц
Битовая глубина : 16 бит
Метод сжатия : С потерями
Размер потока : 28,4 Мбайт (10%)
Выравнивание : Разделение по промежуткам
Продолжительность промежутка : 42 мс. (1,00 видеокадр)
Время предзагрузки промежутка : 500 мс.
Скриншоты:


Детали торрента:
Название:Динозавр Герти / Gertie the Dinosaur (1914-1921) DVDRip
Дата добавления:06 Фев 2014 18:47:18
Размер:320 MB
Раздают:
Качают:0
Форум:Зарубежные Мультфильмы (HD*Rip/LQ, DVDRip, SATRip, VHSRip)

All rights reserved © 2015-2018