TORRENTS43.COM

Скачать Торба-На-Круче - Так Не Бывает (2008) [ALAC|Tracks]<Rock>


Торба-На-Круче - Так Не Бывает (2008)
Год: 2008
Страна-производитель диска: Россия
Лейбл: 2+2=5
Каталожный №: 225CD-13
Жанр: Rock
Продолжительность: 00:43:56

Кодек: ALAC
Битрейт: Lossless
Тип раздачи: Tracks
Обложки: Вшиты
Тексты: Нет
Кодирование: EAC>>foobar2000 + iTunes
Исходник: FLAC (Lossless)
Спасибо: sseless

Треклист:
01-Залиты солнцем
02-Потерялась она
03-Жизнь-водоём
04-На краю улыбки
05-Ретро
06-Мысли
07-На грани
08-Друг
09-Марьюшка
10-Девушка rock-звезды
11-Утро на травах
12-Сваи

Mediainfo:

Код:

Общее
Полное имя                               : C:\Торба-на-Круче - Так Не Бывает (2008)\01 Залиты Солнцем.m4a
Формат                                   : MPEG-4
Профиль формата                          : Apple audio with iTunes info
Идентификатор кодека                     : M4A
Размер файла                             : 25,0 Мбайт
Продолжительность                        : 3 м. 10 с.
Режим общего битрейта                    : Переменный
Общий поток                              : 1098 Кбит/сек
Альбом                                   : Так Не Бывает
Альбом/Исполнитель                       : Торба-на-Круче
Часть/Положение                          : 1
Часть/Всего                              : 1
Трек                                     : Залиты Солнцем
Трек/Положение                           : 1
Трек/Всего                               : 12
Исполнитель                              : Торба-на-Круче
Жанр                                     : Rock
Дата записи                              : 2008
Дата кодирования                         : UTC 2014-02-14 21:33:23
Дата пометки                             : UTC 2014-02-14 21:33:52
Программа кодирования                    : iTunes 11.1.3.8
Обложка                                  : Yes
UFIDhttp://www.cddb.com/id3/taginfo1.htm : 3CD3N37Q172327011V4894653B720693FD9D503DF19A34DB506AP6
Encoding Params                          : (Binary)

Аудио
Идентификатор                            : 1
Формат                                   : ALAC
Идентификатор кодека                     : alac
Идентификатор кодека/Информация          : Apple Lossless Audio Codec
Продолжительность                        : 3 м. 10 с.
Duration_LastFrame                       : -80 мс.
Вид битрейта                             : Переменный
Битрейт                                  : 1087 Кбит/сек
Каналы                                   : 2 канала
Частота                                  : 44,1 КГц
Битовая глубина                          : 16 бит
Размер потока                            : 24,8 Мбайт (99%)
Дата кодирования                         : UTC 2014-02-14 21:33:23
Дата пометки                             : UTC 2014-02-14 21:33:52

Общее
Полное имя                               : C:\Торба-на-Круче - Так Не Бывает (2008)\02 Потерялась Она.m4a
Формат                                   : MPEG-4
Профиль формата                          : Apple audio with iTunes info
Идентификатор кодека                     : M4A
Размер файла                             : 27,1 Мбайт
Продолжительность                        : 3 м. 40 с.
Режим общего битрейта                    : Переменный
Общий поток                              : 1030 Кбит/сек
Альбом                                   : Так Не Бывает
Альбом/Исполнитель                       : Торба-на-Круче
Часть/Положение                          : 1
Часть/Всего                              : 1
Трек                                     : Потерялась Она
Трек/Положение                           : 2
Трек/Всего                               : 12
Исполнитель                              : Торба-на-Круче
Жанр                                     : Rock
Дата записи                              : 2008
Дата кодирования                         : UTC 2014-02-14 21:33:53
Дата пометки                             : UTC 2014-02-14 21:34:22
Программа кодирования                    : iTunes 11.1.3.8
Обложка                                  : Yes
UFIDhttp://www.cddb.com/id3/taginfo1.htm : 3CD3N40Q172327012U338937188E5597692779BF35DDE929A4EC0P2
Encoding Params                          : (Binary)

Аудио
Идентификатор                            : 1
Формат                                   : ALAC
Идентификатор кодека                     : alac
Идентификатор кодека/Информация          : Apple Lossless Audio Codec
Продолжительность                        : 3 м. 40 с.
Duration_LastFrame                       : -29 мс.
Вид битрейта                             : Переменный
Битрейт                                  : 1021 Кбит/сек
Каналы                                   : 2 канала
Частота                                  : 44,1 КГц
Битовая глубина                          : 16 бит
Размер потока                            : 26,9 Мбайт (99%)
Дата кодирования                         : UTC 2014-02-14 21:33:53
Дата пометки                             : UTC 2014-02-14 21:34:22

Общее
Полное имя                               : C:\Торба-на-Круче - Так Не Бывает (2008)\03 Жизнь-Водоем.m4a
Формат                                   : MPEG-4
Профиль формата                          : Apple audio with iTunes info
Идентификатор кодека                     : M4A
Размер файла                             : 17,8 Мбайт
Продолжительность                        : 2 м. 15 с.
Режим общего битрейта                    : Переменный
Общий поток                              : 1102 Кбит/сек
Альбом                                   : Так Не Бывает
Альбом/Исполнитель                       : Торба-на-Круче
Часть/Положение                          : 1
Часть/Всего                              : 1
Трек                                     : Жизнь-Водоем
Трек/Положение                           : 3
Трек/Всего                               : 12
Исполнитель                              : Торба-на-Круче
Жанр                                     : Rock
Дата записи                              : 2008
Дата кодирования                         : UTC 2014-02-14 21:34:22
Дата пометки                             : UTC 2014-02-14 21:34:35
Программа кодирования                    : iTunes 11.1.3.8
Обложка                                  : Yes
UFIDhttp://www.cddb.com/id3/taginfo1.htm : 3CD3N43Q172327013U3380677AB1D97B0B9E30B312903B37D4776P0
Encoding Params                          : (Binary)

Аудио
Идентификатор                            : 1
Формат                                   : ALAC
Идентификатор кодека                     : alac
Идентификатор кодека/Информация          : Apple Lossless Audio Codec
Продолжительность                        : 2 м. 15 с.
Duration_LastFrame                       : -85 мс.
Вид битрейта                             : Переменный
Битрейт                                  : 1087 Кбит/сек
Каналы                                   : 2 канала
Частота                                  : 44,1 КГц
Битовая глубина                          : 16 бит
Размер потока                            : 17,6 Мбайт (99%)
Дата кодирования                         : UTC 2014-02-14 21:34:22
Дата пометки                             : UTC 2014-02-14 21:34:35

Общее
Полное имя                               : C:\Торба-на-Круче - Так Не Бывает (2008)\04 На Краю Улыбки.m4a
Формат                                   : MPEG-4
Профиль формата                          : Apple audio with iTunes info
Идентификатор кодека                     : M4A
Размер файла                             : 34,2 Мбайт
Продолжительность                        : 4 м. 33 с.
Режим общего битрейта                    : Переменный
Общий поток                              : 1050 Кбит/сек
Альбом                                   : Так Не Бывает
Альбом/Исполнитель                       : Торба-на-Круче
Часть/Положение                          : 1
Часть/Всего                              : 1
Трек                                     : На Краю Улыбки
Трек/Положение                           : 4
Трек/Всего                               : 12
Исполнитель                              : Торба-на-Круче
Жанр                                     : Rock
Дата записи                              : 2008
Дата кодирования                         : UTC 2014-02-14 21:34:35
Дата пометки                             : UTC 2014-02-14 21:34:58
Программа кодирования                    : iTunes 11.1.3.8
Обложка                                  : Yes
UFIDhttp://www.cddb.com/id3/taginfo1.htm : 3CD3N47Q172327014U1882095E4918F6CF50ACF2C87FFE61D5C97P6
Encoding Params                          : (Binary)

Аудио
Идентификатор                            : 1
Формат                                   : ALAC
Идентификатор кодека                     : alac
Идентификатор кодека/Информация          : Apple Lossless Audio Codec
Продолжительность                        : 4 м. 33 с.
Duration_LastFrame                       : -51 мс.
Вид битрейта                             : Переменный
Битрейт                                  : 1043 Кбит/сек
Каналы                                   : 2 канала
Частота                                  : 44,1 КГц
Битовая глубина                          : 16 бит
Размер потока                            : 34,0 Мбайт (99%)
Дата кодирования                         : UTC 2014-02-14 21:34:35
Дата пометки                             : UTC 2014-02-14 21:34:58

Общее
Полное имя                               : C:\Торба-на-Круче - Так Не Бывает (2008)\05 Ретро.m4a
Формат                                   : MPEG-4
Профиль формата                          : Apple audio with iTunes info
Идентификатор кодека                     : M4A
Размер файла                             : 33,7 Мбайт
Продолжительность                        : 5 м. 26 с.
Режим общего битрейта                    : Переменный
Общий поток                              : 865 Кбит/сек
Альбом                                   : Так Не Бывает
Альбом/Исполнитель                       : Торба-на-Круче
Часть/Положение                          : 1
Часть/Всего                              : 1
Трек                                     : Ретро
Трек/Положение                           : 5
Трек/Всего                               : 12
Исполнитель                              : Торба-на-Круче
Жанр                                     : Rock
Дата записи                              : 2008
Дата кодирования                         : UTC 2014-02-14 21:34:58
Дата пометки                             : UTC 2014-02-14 21:35:23
Программа кодирования                    : iTunes 11.1.3.8
Обложка                                  : Yes
UFIDhttp://www.cddb.com/id3/taginfo1.htm : 3CD3N50Q172327015V08652E442A7060250CF88BC7A5853FCD6EP3
Encoding Params                          : (Binary)

Аудио
Идентификатор                            : 1
Формат                                   : ALAC
Идентификатор кодека                     : alac
Идентификатор кодека/Информация          : Apple Lossless Audio Codec
Продолжительность                        : 5 м. 26 с.
Duration_LastFrame                       : -85 мс.
Вид битрейта                             : Переменный
Битрейт                                  : 858 Кбит/сек
Каналы                                   : 2 канала
Частота                                  : 44,1 КГц
Битовая глубина                          : 16 бит
Размер потока                            : 33,4 Мбайт (99%)
Дата кодирования                         : UTC 2014-02-14 21:34:58
Дата пометки                             : UTC 2014-02-14 21:35:23

Общее
Полное имя                               : C:\Торба-на-Круче - Так Не Бывает (2008)\06 Мысли.m4a
Формат                                   : MPEG-4
Профиль формата                          : Apple audio with iTunes info
Идентификатор кодека                     : M4A
Размер файла                             : 28,9 Мбайт
Продолжительность                        : 3 м. 43 с.
Режим общего битрейта                    : Переменный
Общий поток                              : 1081 Кбит/сек
Альбом                                   : Так Не Бывает
Альбом/Исполнитель                       : Торба-на-Круче
Часть/Положение                          : 1
Часть/Всего                              : 1
Трек                                     : Мысли
Трек/Положение                           : 6
Трек/Всего                               : 12
Исполнитель                              : Торба-на-Круче
Жанр                                     : Rock
Дата записи                              : 2008
Дата кодирования                         : UTC 2014-02-14 21:35:23
Дата пометки                             : UTC 2014-02-14 21:35:39
Программа кодирования                    : iTunes 11.1.3.8
Обложка                                  : Yes
UFIDhttp://www.cddb.com/id3/taginfo1.htm : 3CD3N53Q172327016U50825026E05E697BA78B8D9240BC962307CP3
Encoding Params                          : (Binary)

Аудио
Идентификатор                            : 1
Формат                                   : ALAC
Идентификатор кодека                     : alac
Идентификатор кодека/Информация          : Apple Lossless Audio Codec
Продолжительность                        : 3 м. 43 с.
Duration_LastFrame                       : -53 мс.
Вид битрейта                             : Переменный
Битрейт                                  : 1072 Кбит/сек
Каналы                                   : 2 канала
Частота                                  : 44,1 КГц
Битовая глубина                          : 16 бит
Размер потока                            : 28,6 Мбайт (99%)
Дата кодирования                         : UTC 2014-02-14 21:35:23
Дата пометки                             : UTC 2014-02-14 21:35:39

Общее
Полное имя                               : C:\Торба-на-Круче - Так Не Бывает (2008)\07 На Грани.m4a
Формат                                   : MPEG-4
Профиль формата                          : Apple audio with iTunes info
Идентификатор кодека                     : M4A
Размер файла                             : 23,9 Мбайт
Продолжительность                        : 3 м. 5 с.
Режим общего битрейта                    : Переменный
Общий поток                              : 1084 Кбит/сек
Альбом                                   : Так Не Бывает
Альбом/Исполнитель                       : Торба-на-Круче
Часть/Положение                          : 1
Часть/Всего                              : 1
Трек                                     : На Грани
Трек/Положение                           : 7
Трек/Всего                               : 12
Исполнитель                              : Торба-на-Круче
Жанр                                     : Rock
Дата записи                              : 2008
Дата кодирования                         : UTC 2014-02-14 21:35:40
Дата пометки                             : UTC 2014-02-14 21:36:00
Программа кодирования                    : iTunes 11.1.3.8
Обложка                                  : Yes
UFIDhttp://www.cddb.com/id3/taginfo1.htm : 3CD3N57Q172327017V48D1FA441DAE40686559C3010336F4125CP2
Encoding Params                          : (Binary)

Аудио
Идентификатор                            : 1
Формат                                   : ALAC
Идентификатор кодека                     : alac
Идентификатор кодека/Информация          : Apple Lossless Audio Codec
Продолжительность                        : 3 м. 5 с.
Duration_LastFrame                       : -56 мс.
Вид битрейта                             : Переменный
Битрейт                                  : 1073 Кбит/сек
Каналы                                   : 2 канала
Частота                                  : 44,1 КГц
Битовая глубина                          : 16 бит
Размер потока                            : 23,7 Мбайт (99%)
Дата кодирования                         : UTC 2014-02-14 21:35:40
Дата пометки                             : UTC 2014-02-14 21:36:00

Общее
Полное имя                               : C:\Торба-на-Круче - Так Не Бывает (2008)\08 Друг.m4a
Формат                                   : MPEG-4
Профиль формата                          : Apple audio with iTunes info
Идентификатор кодека                     : M4A
Размер файла                             : 37,3 Мбайт
Продолжительность                        : 5 м. 0 с.
Режим общего битрейта                    : Переменный
Общий поток                              : 1039 Кбит/сек
Альбом                                   : Так Не Бывает
Альбом/Исполнитель                       : Торба-на-Круче
Часть/Положение                          : 1
Часть/Всего                              : 1
Трек                                     : Друг
Трек/Положение                           : 8
Трек/Всего                               : 12
Исполнитель                              : Торба-на-Круче
Жанр                                     : Rock
Дата записи                              : 2008
Дата кодирования                         : UTC 2014-02-14 21:36:00
Дата пометки                             : UTC 2014-02-14 21:36:19
Программа кодирования                    : iTunes 11.1.3.8
Обложка                                  : Yes
UFIDhttp://www.cddb.com/id3/taginfo1.htm : 3CD3N60Q172327018V8800C03DCD4D8B6EA24076E1A66E05A5AFP1
Encoding Params                          : (Binary)

Аудио
Идентификатор                            : 1
Формат                                   : ALAC
Идентификатор кодека                     : alac
Идентификатор кодека/Информация          : Apple Lossless Audio Codec
Продолжительность                        : 5 м. 0 с.
Duration_LastFrame                       : -37 мс.
Вид битрейта                             : Переменный
Битрейт                                  : 1032 Кбит/сек
Каналы                                   : 2 канала
Частота                                  : 44,1 КГц
Битовая глубина                          : 16 бит
Размер потока                            : 37,0 Мбайт (99%)
Дата кодирования                         : UTC 2014-02-14 21:36:00
Дата пометки                             : UTC 2014-02-14 21:36:19

Общее
Полное имя                               : C:\Торба-на-Круче - Так Не Бывает (2008)\09 Марьюшка.m4a
Формат                                   : MPEG-4
Профиль формата                          : Apple audio with iTunes info
Идентификатор кодека                     : M4A
Размер файла                             : 22,0 Мбайт
Продолжительность                        : 3 м. 23 с.
Режим общего битрейта                    : Переменный
Общий поток                              : 906 Кбит/сек
Альбом                                   : Так Не Бывает
Альбом/Исполнитель                       : Торба-на-Круче
Часть/Положение                          : 1
Часть/Всего                              : 1
Трек                                     : Марьюшка
Трек/Положение                           : 9
Трек/Всего                               : 12
Исполнитель                              : Торба-на-Круче
Жанр                                     : Rock
Дата записи                              : 2008
Дата кодирования                         : UTC 2014-02-14 21:36:20
Дата пометки                             : UTC 2014-02-14 21:36:32
Программа кодирования                    : iTunes 11.1.3.8
Обложка                                  : Yes
UFIDhttp://www.cddb.com/id3/taginfo1.htm : 3CD3N63Q172327019U4080C9B2229A0F0CAD8E5329FBD13B8E6A6P6
Encoding Params                          : (Binary)

Аудио
Идентификатор                            : 1
Формат                                   : ALAC
Идентификатор кодека                     : alac
Идентификатор кодека/Информация          : Apple Lossless Audio Codec
Продолжительность                        : 3 м. 23 с.
Duration_LastFrame                       : -71 мс.
Вид битрейта                             : Переменный
Битрейт                                  : 896 Кбит/сек
Каналы                                   : 2 канала
Частота                                  : 44,1 КГц
Битовая глубина                          : 16 бит
Размер потока                            : 21,8 Мбайт (99%)
Дата кодирования                         : UTC 2014-02-14 21:36:20
Дата пометки                             : UTC 2014-02-14 21:36:32

Общее
Полное имя                               : C:\Торба-на-Круче - Так Не Бывает (2008)\10 Девушка Rock-Звезды.m4a
Формат                                   : MPEG-4
Профиль формата                          : Apple audio with iTunes info
Идентификатор кодека                     : M4A
Размер файла                             : 28,6 Мбайт
Продолжительность                        : 3 м. 48 с.
Режим общего битрейта                    : Переменный
Общий поток                              : 1049 Кбит/сек
Альбом                                   : Так Не Бывает
Альбом/Исполнитель                       : Торба-на-Круче
Часть/Положение                          : 1
Часть/Всего                              : 1
Трек                                     : Девушка Rock-Звезды
Трек/Положение                           : 10
Трек/Всего                               : 12
Исполнитель                              : Торба-на-Круче
Жанр                                     : Rock
Дата записи                              : 2008
Дата кодирования                         : UTC 2014-02-14 21:36:33
Дата пометки                             : UTC 2014-02-14 21:36:47
Программа кодирования                    : iTunes 11.1.3.8
Обложка                                  : Yes
UFIDhttp://www.cddb.com/id3/taginfo1.htm : 3CD3N66Q172327020V089C39022DD4F500A41162915063FC7C74P0
Encoding Params                          : (Binary)

Аудио
Идентификатор                            : 1
Формат                                   : ALAC
Идентификатор кодека                     : alac
Идентификатор кодека/Информация          : Apple Lossless Audio Codec
Продолжительность                        : 3 м. 48 с.
Duration_LastFrame                       : -55 мс.
Вид битрейта                             : Переменный
Битрейт                                  : 1040 Кбит/сек
Каналы                                   : 2 канала
Частота                                  : 44,1 КГц
Битовая глубина                          : 16 бит
Размер потока                            : 28,4 Мбайт (99%)
Дата кодирования                         : UTC 2014-02-14 21:36:33
Дата пометки                             : UTC 2014-02-14 21:36:47

Общее
Полное имя                               : C:\Торба-на-Круче - Так Не Бывает (2008)\11 Утро На Травах.m4a
Формат                                   : MPEG-4
Профиль формата                          : Apple audio with iTunes info
Идентификатор кодека                     : M4A
Размер файла                             : 19,4 Мбайт
Продолжительность                        : 2 м. 27 с.
Режим общего битрейта                    : Переменный
Общий поток                              : 1109 Кбит/сек
Альбом                                   : Так Не Бывает
Альбом/Исполнитель                       : Торба-на-Круче
Часть/Положение                          : 1
Часть/Всего                              : 1
Трек                                     : Утро На Травах
Трек/Положение                           : 11
Трек/Всего                               : 12
Исполнитель                              : Торба-на-Круче
Жанр                                     : Rock
Дата записи                              : 2008
Дата кодирования                         : UTC 2014-02-14 21:36:47
Дата пометки                             : UTC 2014-02-14 21:37:04
Программа кодирования                    : iTunes 11.1.3.8
Обложка                                  : Yes
UFIDhttp://www.cddb.com/id3/taginfo1.htm : 3CD3N70Q172327021V08965629D6B51E15832DC10C3C775054E3P7
Encoding Params                          : (Binary)

Аудио
Идентификатор                            : 1
Формат                                   : ALAC
Идентификатор кодека                     : alac
Идентификатор кодека/Информация          : Apple Lossless Audio Codec
Продолжительность                        : 2 м. 27 с.
Duration_LastFrame                       : -28 мс.
Вид битрейта                             : Переменный
Битрейт                                  : 1096 Кбит/сек
Каналы                                   : 2 канала
Частота                                  : 44,1 КГц
Битовая глубина                          : 16 бит
Размер потока                            : 19,2 Мбайт (99%)
Дата кодирования                         : UTC 2014-02-14 21:36:47
Дата пометки                             : UTC 2014-02-14 21:37:04

Общее
Полное имя                               : C:\Торба-на-Круче - Так Не Бывает (2008)\12 Сваи.m4a
Формат                                   : MPEG-4
Профиль формата                          : Apple audio with iTunes info
Идентификатор кодека                     : M4A
Размер файла                             : 26,0 Мбайт
Продолжительность                        : 3 м. 24 с.
Режим общего битрейта                    : Переменный
Общий поток                              : 1069 Кбит/сек
Альбом                                   : Так Не Бывает
Альбом/Исполнитель                       : Торба-на-Круче
Часть/Положение                          : 1
Часть/Всего                              : 1
Трек                                     : Сваи
Трек/Положение                           : 12
Трек/Всего                               : 12
Исполнитель                              : Торба-на-Круче
Жанр                                     : Rock
Дата записи                              : 2008
Дата кодирования                         : UTC 2014-02-14 21:37:04
Дата пометки                             : UTC 2014-02-14 21:37:24
Программа кодирования                    : iTunes 11.1.3.8
Обложка                                  : Yes
UFIDhttp://www.cddb.com/id3/taginfo1.htm : 3CD3N73Q172327022V58CC45EE68A6772A1FC4F53FB68DF8D1D8P7
Encoding Params                          : (Binary)

Аудио
Идентификатор                            : 1
Формат                                   : ALAC
Идентификатор кодека                     : alac
Идентификатор кодека/Информация          : Apple Lossless Audio Codec
Продолжительность                        : 3 м. 24 с.
Duration_LastFrame                       : -56 мс.
Вид битрейта                             : Переменный
Битрейт                                  : 1059 Кбит/сек
Каналы                                   : 2 канала
Частота                                  : 44,1 КГц
Битовая глубина                          : 16 бит
Размер потока                            : 25,8 Мбайт (99%)
Дата кодирования                         : UTC 2014-02-14 21:37:04
Дата пометки                             : UTC 2014-02-14 21:37:24

Общее
Полное имя                               : C:\Торба-на-Круче - Так Не Бывает (2008)\Folder.auCDtect.txt
Размер файла                             : 4,92 Кбайт

Общее
Полное имя                               : C:\Торба-на-Круче - Так Не Бывает (2008)\Thumbs.db
Размер файла                             : 138 Кбайт

Общее
Полное имя                               : C:\Торба-на-Круче - Так Не Бывает (2008)\TMPF734.tmp
Формат                                   : MPEG-4
Профиль формата                          : Apple audio with iTunes info
Идентификатор кодека                     : M4A
Размер файла                             : 24,9 Мбайт
Продолжительность                        : 3 м. 10 с.
Режим общего битрейта                    : Переменный
Общий поток                              : 1093 Кбит/сек
Альбом                                   : Так Не Бывает
Альбом/Исполнитель                       : Торба-на-Круче
Часть/Положение                          : 1
Часть/Всего                              : 1
Трек                                     : Залиты Солнцем
Трек/Положение                           : 1
Трек/Всего                               : 12
Исполнитель                              : Торба-на-Круче
Жанр                                     : Rock
Дата записи                              : 2008
Дата кодирования                         : UTC 2014-02-14 21:33:23
Дата пометки                             : UTC 2014-02-14 21:33:52
Программа кодирования                    : iTunes 11.1.3.8
Обложка                                  : Yes
UFIDhttp://www.cddb.com/id3/taginfo1.htm : 3CD3N37Q172327011V4894653B720693FD9D503DF19A34DB506AP6
Encoding Params                          : (Binary)

Аудио
Идентификатор                            : 1
Формат                                   : ALAC
Идентификатор кодека                     : alac
Идентификатор кодека/Информация          : Apple Lossless Audio Codec
Продолжительность                        : 3 м. 10 с.
Duration_LastFrame                       : -80 мс.
Вид битрейта                             : Переменный
Битрейт                                  : 1087 Кбит/сек
Каналы                                   : 2 канала
Частота                                  : 44,1 КГц
Битовая глубина                          : 16 бит
Размер потока                            : 24,8 Мбайт (100%)
Дата кодирования                         : UTC 2014-02-14 21:33:23
Дата пометки                             : UTC 2014-02-14 21:33:52

Отчёт ЕАС:

Код:

Exact Audio Copy V1.0 beta 3 from 29. August 2011

Отчёт EAC об извлечении, выполненном 14. февраля 2014, 21:22

Торба-на-Круче / Так не бывает

Дисковод: hp      DVDRAM GU60N   Adapter: 0  ID: 0

Режим чтения                 : Достоверность
Использование точного потока : Да
Отключение кэша аудио        : Да
Использование указателей C2  : Нет

Коррекция смещения при чтении                     : 6
Способность читать области Lead-in и Lead-out     : Нет
Заполнение пропущенных сэмплов тишиной            : Да
Удаление блоков с тишиной в начале и конце        : Нет
При вычислениях CRC использовались нулевые сэмплы : Да
Интерфейс                                         : Встроенный Win32-интерфейс для Win NT/2000
Обработка зазоров                                 : Не обнаружено, добавлено к предыдущему треку

Выходной формат          : Пользовательский кодировщик
Выбранный битрейт        : 1024 kBit/s
Качество                 : Высокий
Добавление ID3-тега      : Нет
Утилита сжатия           : C:\Program Files (x86)\Exact Audio Copy\FLAC\FLAC.EXE
Дополнительные параметры : -V -8 -T "Genre=%genre%" -T "Artist=%artist%" -T "Title=%title%" -T "Album=%albumtitle%" -T "Totaldiscs=%totalcds%" -T "Discnumber=%cdnumber%" -T "Date=%year%" -T "Tracknumber=%tracknr%" -T "Comment=%comment%" %source%

TOC извлечённого CD

     Трек |   Старт  | Длительность | Начальный сектор | Конечный сектор
    ---------------------------------------------------------------------
       1  |  0:00.00 |    3:10.73   |           0      |      14322
       2  |  3:10.73 |    3:40.56   |       14323      |      30878
       3  |  6:51.54 |    2:15.25   |       30879      |      41028
       4  |  9:07.04 |    4:33.36   |       41029      |      61539
       5  | 13:40.40 |    5:26.50   |       61540      |      86039
       6  | 19:07.15 |    3:43.66   |       86040      |     102830
       7  | 22:51.06 |    3:05.04   |      102831      |     116709
       8  | 25:56.10 |    5:00.67   |      116710      |     139276
       9  | 30:57.02 |    3:23.67   |      139277      |     154568
      10  | 34:20.69 |    3:48.74   |      154569      |     171742
      11  | 38:09.68 |    2:27.07   |      171743      |     182774
      12  | 40:37.00 |    3:24.14   |      182775      |     198088

Трек  1

     Имя файла C:\Downloads\01 Залиты солнцем.wav

     Пиковый уровень 99.9 %
     Скорость извлечения 1.0 X
     Качество трека 100.0 %
     CRC теста 1A933813
     CRC копии 1A933813
     Трек не обнаружен в базе AccurateRip
     Копирование... OK

Трек  2

     Имя файла C:\Downloads\02 Потерялась она.wav

     Пиковый уровень 99.9 %
     Скорость извлечения 1.0 X
     Качество трека 99.9 %
     CRC теста 456EFE21
     CRC копии 456EFE21
     Трек не обнаружен в базе AccurateRip
     Копирование... OK

Трек  3

     Имя файла C:\Downloads\03 Жизнь-водоём.wav

     Пиковый уровень 99.9 %
     Скорость извлечения 1.1 X
     Качество трека 100.0 %
     CRC теста 60B6F429
     CRC копии 60B6F429
     Трек не обнаружен в базе AccurateRip
     Копирование... OK

Трек  4

     Имя файла C:\Downloads\04 На краю улыбки.wav

     Пиковый уровень 99.9 %
     Скорость извлечения 1.4 X
     Качество трека 100.0 %
     CRC теста 497A5582
     CRC копии 497A5582
     Трек не обнаружен в базе AccurateRip
     Копирование... OK

Трек  5

     Имя файла C:\Downloads\05 Ретро.wav

     Пиковый уровень 99.9 %
     Скорость извлечения 1.4 X
     Качество трека 99.9 %
     CRC теста 1BA8314D
     CRC копии 1BA8314D
     Трек не обнаружен в базе AccurateRip
     Копирование... OK

Трек  6

     Имя файла C:\Downloads\06 Мысли.wav

     Пиковый уровень 99.9 %
     Скорость извлечения 1.6 X
     Качество трека 100.0 %
     CRC теста 0671922C
     CRC копии 0671922C
     Трек не обнаружен в базе AccurateRip
     Копирование... OK

Трек  7

     Имя файла C:\Downloads\07 На грани.wav

     Пиковый уровень 99.9 %
     Скорость извлечения 1.7 X
     Качество трека 100.0 %
     CRC теста EB23C868
     CRC копии EB23C868
     Трек не обнаружен в базе AccurateRip
     Копирование... OK

Трек  8

     Имя файла C:\Downloads\08 Друг.wav

     Пиковый уровень 99.9 %
     Скорость извлечения 0.2 X
     Качество трека 100.0 %
     CRC теста 92B5F8D6
     CRC копии 92B5F8D6
     Трек не обнаружен в базе AccurateRip
     Копирование... OK

Трек  9

     Имя файла C:\Downloads\09 Марьюшка.wav

     Пиковый уровень 99.4 %
     Скорость извлечения 1.9 X
     Качество трека 100.0 %
     CRC теста 45F0A8BD
     CRC копии 45F0A8BD
     Трек не обнаружен в базе AccurateRip
     Копирование... OK

Трек 10

     Имя файла C:\Downloads\10 Девушка rock-звезды.wav

     Пиковый уровень 99.9 %
     Скорость извлечения 1.9 X
     Качество трека 100.0 %
     CRC теста 4B840AAC
     CRC копии 4B840AAC
     Трек не обнаружен в базе AccurateRip
     Копирование... OK

Трек 11

     Имя файла C:\Downloads\11 Утро на травах.wav

     Пиковый уровень 99.9 %
     Скорость извлечения 1.8 X
     Качество трека 100.0 %
     CRC теста 1A0061B0
     CRC копии 1A0061B0
     Трек не обнаружен в базе AccurateRip
     Копирование... OK

Трек 12

     Имя файла C:\Downloads\12 Сваи.wav

     Пиковый уровень 99.9 %
     Скорость извлечения 1.8 X
     Качество трека 99.9 %
     CRC теста 50028234
     CRC копии 50028234
     Трек не обнаружен в базе AccurateRip
     Копирование... OK

Ни одного трека нет в базе AccurateRip

Ошибок не произошло

Конец отчёта

---- CUETools DB Plugin V2.1.3

[CTDB TOCID: QP70_L69eRE6oEcdzbA4qMJBRcw-] disk not present in database, Submit result: QP70_L69eRE6oEcdzbA4qMJBRcw- has been uploaded

==== Контрольная сумма отчёта 87504D9237E33A598D6006FCD23F68A782459ACE3E0B6C6978E7C3FCF5BEFA8B ====

Отчёт auCDtect Task manager:

Код:

-----------------------

DON'T MODIFY THIS FILE

-----------------------

PERFORMER: auCDtect Task Manager, ver. 1.6.0 RC1 build 1.6.0.1
Copyright (c) 2008-2010 y-soft. All rights reserved
http://y-soft.org

ANALYZER: auCDtect: CD records authenticity detector, version 0.8.2
Copyright (c) 2004 Oleg Berngardt. All rights reserved.
Copyright (c) 2004 Alexander Djourik. All rights reserved.

FILE: 12 Сваи.m4a
  Size: 27047456 Hash: 6F136CC8E06FDE03716EE47F40961A15 Accuracy: -m0
  Conclusion: CDDA 100%
  Signature: 3488D295CC11C11D3BB26E756170A9BA9D97C7D9
FILE: 11 Утро На Травах.m4a
  Size: 20163457 Hash: FF186C56D7664CF4729CB683A5200046 Accuracy: -m0
  Conclusion: CDDA 100%
  Signature: BAC69BE1E27588023A328C54AA239F757943C735
FILE: 10 Девушка Rock-Звезды.m4a
  Size: 29786715 Hash: 7AA34E241839DB17E9FFC3F29A264D4C Accuracy: -m0
  Conclusion: CDDA 100%
  Signature: AF9DC076A20241B791334D8683DAEFE8ACCDA4A5
FILE: 09 Марьюшка.m4a
  Size: 22867650 Hash: 3BDD0A3E97ADEA2ABE2A7F6543151145 Accuracy: -m0
  Conclusion: CDDA 100%
  Signature: 617BD5AA8921F8DC7D48C05E511729838B4CDBE8
FILE: 08 Друг.m4a
  Size: 38842194 Hash: 1509470AA82CC586ACAE35CDED51A274 Accuracy: -m0
  Conclusion: CDDA 99%
  Signature: B2C5CB09895A989B23CDEA8E92E7BA80B114FAFA
FILE: 07 На Грани.m4a
  Size: 24846058 Hash: CD05DDC0933DF84B34B194005D6B9246 Accuracy: -m0
  Conclusion: CDDA 100%
  Signature: 53DD74B27100437BC8D6EE276810179668038FF1
FILE: 06 Мысли.m4a
  Size: 30034472 Hash: 8AED081624F3411071056A02A86E7E23 Accuracy: -m0
  Conclusion: CDDA 99%
  Signature: A3889FF8B76021BC6206077E2D48379F8F988933
FILE: 05 Ретро.m4a
  Size: 35088469 Hash: B2ACE396B8B5AA45EEBD7F61FCFB6AD0 Accuracy: -m0
  Conclusion: CDDA 100%
  Signature: 23C147FB99416149FF9D76B847ADA97087D91AD5
FILE: 04 На Краю Улыбки.m4a
  Size: 35668411 Hash: AFE1EA43A80139CE4ABC2537D087E56D Accuracy: -m0
  Conclusion: CDDA 100%
  Signature: 144A05DAEC6B44EAFB35015FD71C4B403645C2E5
FILE: 03 Жизнь-Водоем.m4a
  Size: 18417791 Hash: 1B3AEE38407E4908DA169649E1B87BDA Accuracy: -m0
  Conclusion: CDDA 100%
  Signature: 71D8C9E8B7083ACF4D28A3DF6569E9133CE405F3
FILE: 02 Потерялась Она.m4a
  Size: 28190026 Hash: 668884DFCA7570B5D612ED3CABA502E8 Accuracy: -m0
  Conclusion: CDDA 100%
  Signature: 6C07B14B0FBF8F1F8948035BE764FEE4D66CD8B3
FILE: 01 Залиты Солнцем.m4a
  Size: 25978444 Hash: DEC6217108A67B0EEC800005612CA05D Accuracy: -m0
  Conclusion: CDDA 100%
  Signature: 35C154EACA1BBABF324B00501516B50F46446043
Детали торрента:
Название:Торба-На-Круче - Так Не Бывает (2008) [ALAC|Tracks]<Rock>
Дата добавления:15 Фев 2014 11:09:34
Размер:324 MB
Раздают:
Качают:0
Форум:Музыка Lossless (ALAC)

All rights reserved © 2015-2018