TORRENTS43.COM

Скачать Специальный корреспондент. Остров Крым (2014.03.04) SATRip


Специальный корреспондент. Остров Крым (2014.03.04) SATRip
Режиссер / Телекомпания: Россия
Русское название: Специальный корреспондент.
Год выпуска: 2014
Жанр: Документальный

Описание:
"Специальный корреспондент" - это популярная публицистическая программа, которая выходит на телеканале "Россия" с сентября 2002 года. Каждую неделю один из ведущих рассказывает в своем фильме-репортаже о какой-либо актуальной проблеме, существующей в современном обществе, посвящает зрительскую аудиторию в подробности наиболее значимых для страны и мира событий.
Вниманию телезрителей предлагаются фильмы производства студий Аркадия Мамонтова, Бориса Соболева Александра Рогаткина и Александра Бузаладзе.
Программа сохранит традиции, заложенные Аркадием Мамонтовым, - самые острые расследования лучших корреспондентов канала "Россия" - и при этом даст возможность экспертам, зрителям и автору материала обсудить ключевые и спорные моменты фильма.
Кроме "ядра" авторов, снимать фильмы для "Специального корреспондента" будут и другие корреспонденты телеканала "Россия".

Тема выпуска: Остров Крым

Продолжительность: ~ 01:11:00

Видеокодек: XviD
Битрейт видео: ~1500 kb/s
Размер кадра: 720 x 448
Качество видео: SATRip
Аудиокодек: MP2, 1ch.
Битрейт аудио: 128 kb/s

MediaInfo

Формат : AVI
Формат/Информация : Audio Video Interleave
Размер файла : 832 Мбайт
Продолжительность : 1 ч. 11 м.
Общий поток : 1638 Кбит/сек
Программа кодирования : VirtualDubMod 1.5.10.3 | www.virtualdub-fr.org || (build 2550/release)
Библиотека кодирования : VirtualDubMod build 2550/release

Видео
Идентификатор : 0
Формат : MPEG-4 Visual
Профиль формата : Advanced Simple@L5
Параметр BVOP формата : 2
Параметр QPel формата : Нет
Параметр GMC формата : Без точки перехода
Параметр матрицы формата : Default (H.263)
Идентификатор кодека : XVID
Идентификатор кодека/Подсказка : XviD
Продолжительность : 1 ч. 11 м.
Битрейт : 1500 Кбит/сек
Ширина : 720 пикселей
Высота : 448 пикселей
Соотношение сторон : 1,607
Частота кадров : 25,000 кадров/сек
Цветовое пространство : YUV
Субдискретизация насыщенности : 4:2:0
Битовая глубина : 8 бит
Тип развёртки : Прогрессивная
Метод сжатия : С потерями
Бит/(Пиксели*Кадры) : 0.186
Размер потока : 762 Мбайт (92%)
Библиотека кодирования : XviD 1.2.1 (UTC 2008-12-04)

Аудио
Идентификатор : 1
Формат : MPEG Audio
Версия формата : Version 1
Профиль формата : Layer 3
Идентификатор кодека : 55
Идентификатор кодека/Подсказка : MP3
Продолжительность : 1 ч. 11 м.
Вид битрейта : Постоянный
Битрейт : 128 Кбит/сек
Каналы : 1 канал
Частота : 48,0 КГц
Метод сжатия : С потерями
Размер потока : 65,0 Мбайт (8%)
Выравнивание : Соединение по промежуткам
Продолжительность промежутка : 40 мс. (1,00 видеокадр)
Время предзагрузки промежутка : 504 мс.
Библиотека кодирования : LAME3.99r
Настройки программы : -m m -V 4 -q 2 -lowpass 20.5 -b 128
Скриншоты:
Детали торрента:
Название:Специальный корреспондент. Остров Крым (2014.03.04) SATRip
Дата добавления:04 Мар 2014 20:38:27
Размер:832 MB
Раздают:
Качают:0
Форум:Тележурналистика

All rights reserved © 2015-2018