TORRENTS43.COM

Скачать В гнезде у грабителей / Бандитский насест / Robbers' Roost (1955) HDTVRip [H.264]


В гнезде у грабителей / Бандитский насест / Robbers' Roost (1955) HDTVRip [H.264]
«OUTLAW GANG WAR!»

Год выпуска: 1955
Жанр: Боевик, Драма, Мелодрама, Вестерн
Производство: США / Goldstein-Jacks Productions
Перевод: Двуголосый закадровый
Субтитры: Отсутствуют

Описание фильма:
Чтобы свести к минимуму возможность кражи своего скота, богатый фермер нанимает для его охраны две конкурирующие банды.

Режиссер: Сидней Сэлкоу
Сценарий: Джон О’Ди, Сидней Сэлкоу, Морис Джерати
Продюсер: Роберт Голдштейн, Леонард Голдштейн
Актеры: Джордж Монтгомери, Ричард Бун, Сильвия Финдли, Брюс Беннетт, Питер Грейвз, Тони Романо, Уоррен Стивенс, Уильям Хоппер, Стэнли Клементс, Лео Гордон

Продолжительность: 01:19:16
Качество видео: HDTVRip



Дата мировой премьеры: 30 мая 1955

Видеокодек: MPEG-4 AVC/H.264
Битрейт видео: ~2430 Кбит/сек
Размер кадра: 1024x576
Аудиокодек: MP2 2.0
Битрейт аудио: 192 Кбит/сек

MediaInfo:

General
Unique ID : 251268784580098543032170471354270693122 (0xBD089B8DB8E4AAE48A71ED74878F3702)
Complete name : F:\Downloads\В гнезде у грабителей.mkv
Format : Matroska
Format version : Version 4 / Version 2
File size : 1.45 GiB
Duration : 1h 19mn
Overall bit rate : 2 624 Kbps
Encoded date : UTC 2014-03-12 09:47:05
Writing application : mkvmerge v6.4.1 ('Omega Point') built on Sep 16 2013 22:05:10
Writing library : libebml v1.3.0 + libmatroska v1.4.1

Video
ID : 1
Format : AVC
Format/Info : Advanced Video Codec
Format profile : High@L4.1
Format settings, CABAC : Yes
Format settings, ReFrames : 8 frames
Codec ID : V_MPEG4/ISO/AVC
Duration : 1h 19mn
Bit rate : 2 430 Kbps
Width : 1 024 pixels
Height : 576 pixels
Display aspect ratio : 16:9
Frame rate mode : Constant
Frame rate : 25.000 fps
Color space : YUV
Chroma subsampling : 4:2:0
Bit depth : 8 bits
Scan type : Progressive
Bits/(Pixel*Frame) : 0.165
Stream size : 1.32 GiB (91%)
Title : Robbers' Roost
Writing library : x264 core 130 r2273 b3065e6
Encoding settings : cabac=1 / ref=8 / deblock=1:0:0 / analyse=0x3:0x133 / me=umh / subme=9 / psy=1 / psy_rd=1.00:0.00 / mixed_ref=1 / me_range=32 / chroma_me=1 / trellis=2 / 8x8dct=1 / cqm=0 / deadzone=21,11 / fast_pskip=0 / chroma_qp_offset=-2 / threads=6 / lookahead_threads=1 / sliced_threads=0 / nr=0 / decimate=1 / interlaced=0 / bluray_compat=0 / constrained_intra=0 / bframes=3 / b_pyramid=2 / b_adapt=2 / b_bias=0 / direct=3 / weightb=1 / open_gop=0 / weightp=2 / keyint=250 / keyint_min=25 / scenecut=40 / intra_refresh=0 / rc_lookahead=60 / rc=2pass / mbtree=1 / bitrate=2430 / ratetol=1.0 / qcomp=0.60 / qpmin=10 / qpmax=51 / qpstep=4 / cplxblur=20.0 / qblur=0.5 / ip_ratio=1.40 / aq=1:1.00
Language : English
Default : Yes
Forced : No

Audio
ID : 2
Format : MPEG Audio
Format version : Version 1
Format profile : Layer 2
Codec ID : A_MPEG/L2
Codec ID/Hint : MP2
Duration : 1h 19mn
Bit rate mode : Constant
Bit rate : 192 Kbps
Channel(s) : 2 channels
Sampling rate : 48.0 KHz
Compression mode : Lossy
Stream size : 109 MiB (7%)
Title : Профессиональный двухголосый
Language : Russian
Default : Yes
Forced : No
Скриншоты:




Детали торрента:
Название:В гнезде у грабителей / Бандитский насест / Robbers' Roost (1955) HDTVRip [H.264]
Дата добавления:13 Мар 2014 11:12:12
Размер:1,45 GB
Раздают:
Качают:0
Форум:Старые Зарубежные Фильмы (HD*Rip/LQ, DVDRip, SATRip, VHSRip)

All rights reserved © 2015-2018