TORRENTS43.COM

Скачать Amanda Somerville - Windows (2008) [FLAC|Lossless]<pop>


Amanda Somerville - Windows (2008)
Год: 2008
Жанр: pop
Продолжительность: 00:50:48.20

Кодек: FLAC
Битрейт: Lossless

Треклист:
1. Mayday 4:41
2. Point Of No Return 4:08
3. Moth 3:51
4. My Song For You 3:54
5. Inner Whore 3:42
7. Out 3:46
8. Carnival 4:10
9. Clear 3:28
10. Sometimes 4:23
11. All That I Am 5:10
12. Windows 4:51

Дополнительная информация:

LC 12240
Checking AccurateRip database

Track ->> Ripping Status ->> ->> [Disc ID: 00164a4d-b90be80c]

1 ->> ** Rip not accurate ** (confidence 3) [f873fbcd] [c5597077]
2 ->> ** Rip not accurate ** (confidence 3) [723b687d] [dac9dc3c]
3 ->> ** Rip not accurate ** (confidence 3) [17af6111] [23d4ff79]
4 ->> ** Rip not accurate ** (confidence 3) [33896411] [015c3198]
5 ->> ** Rip not accurate ** (confidence 3) [5cc2ba32] [b28c0b82]
6 ->> ** Rip not accurate ** (confidence 3) [b3baf1a9] [a27743e1]
7 ->> ** Rip not accurate ** (confidence 3) [8aec18d0] [eaa6d9bd]
8 ->> ** Rip not accurate ** (confidence 3) [c23699f4] [2325514e]
9 ->> ** Rip not accurate ** (confidence 3) [7d2f8663] [d25b0378]
10 ->> ** Rip not accurate ** (confidence 3) [2f817046] [8a16e7dd]
11 ->> ** Rip not accurate ** (confidence 3) [5031be58] [08acb6f0]
12 ->> ** Rip not accurate ** (confidence 3) [1f876385] [674f752f]

_______________________

Your CD disc is possibly a different pressing to the one(s) stored in AccurateRip.
Track(s) Accurately Ripped: 0
**** Track(s) Not Ripped Accurately: 12 ****
Track(s) Not in Database: 0

Отчёт ЕАС:

Код:

Exact Audio Copy V1.0 beta 3 from 29. August 2011

EAC extraction logfile from 16. March 2014, 18:16

Amanda Somerville / Windows

Used drive  : hp      DVD RW AD-7740H   Adapter: 2  ID: 0

Read mode               : Secure
Utilize accurate stream : Yes
Defeat audio cache      : Yes
Make use of C2 pointers : No

Read offset correction                      : 48
Overread into Lead-In and Lead-Out          : No
Fill up missing offset samples with silence : Yes
Delete leading and trailing silent blocks   : No
Null samples used in CRC calculations       : Yes
Used interface                              : Installed external ASPI interface

Used output format              : User Defined Encoder
Selected bitrate                : 1024 kBit/s
Quality                         : High
Add ID3 tag                     : No
Command line compressor         : C:\Program Files (x86)\Exact Audio Copy\Flac\flac.exe
Additional command line options : -V -8 -T "Date=%year%" -T "Genre=%genre%" %source%

TOC of the extracted CD

     Track |   Start  |  Length  | Start sector | End sector
    ---------------------------------------------------------
        1  |  0:00.00 |  4:41.46 |         0    |    21120
        2  |  4:41.46 |  4:08.01 |     21121    |    39721
        3  |  8:49.47 |  3:51.40 |     39722    |    57086
        4  | 12:41.12 |  3:53.71 |     57087    |    74632
        5  | 16:35.08 |  4:40.60 |     74633    |    95692
        6  | 21:15.68 |  3:42.30 |     95693    |   112372
        7  | 24:58.23 |  3:46.43 |    112373    |   129365
        8  | 28:44.66 |  4:09.72 |    129366    |   148112
        9  | 32:54.63 |  3:28.39 |    148113    |   163751
       10  | 36:23.27 |  4:23.60 |    163752    |   183536
       11  | 40:47.12 |  5:10.09 |    183537    |   206795
       12  | 45:57.21 |  4:50.74 |    206796    |   228619

Range status and errors

Selected range

     Filename D:\Конвертация\Amanda Somerville - Windows.wav

     Peak level 98.8 %
     Extraction speed 2.0 X
     Range quality 100.0 %
     Copy CRC CD0E5DD2
     Copy OK

No errors occurred

AccurateRip summary

Track  1  cannot be verified as accurate (confidence 3)  [A178237A], AccurateRip returned [F873FBCD]  (AR v2)
Track  2  cannot be verified as accurate (confidence 3)  [C454FB8B], AccurateRip returned [723B687D]  (AR v2)
Track  3  cannot be verified as accurate (confidence 3)  [5D15F2F4], AccurateRip returned [17AF6111]  (AR v2)
Track  4  cannot be verified as accurate (confidence 3)  [927A96B0], AccurateRip returned [33896411]  (AR v2)
Track  5  cannot be verified as accurate (confidence 3)  [680FF751], AccurateRip returned [5CC2BA32]  (AR v2)
Track  6  cannot be verified as accurate (confidence 3)  [B629C7A2], AccurateRip returned [B3BAF1A9]  (AR v2)
Track  7  cannot be verified as accurate (confidence 3)  [399B6E69], AccurateRip returned [8AEC18D0]  (AR v2)
Track  8  cannot be verified as accurate (confidence 3)  [BF059341], AccurateRip returned [C23699F4]  (AR v2)
Track  9  cannot be verified as accurate (confidence 3)  [56E48F5D], AccurateRip returned [7D2F8663]  (AR v2)
Track 10  cannot be verified as accurate (confidence 3)  [75BD36C7], AccurateRip returned [2F817046]  (AR v2)
Track 11  cannot be verified as accurate (confidence 3)  [B67204F6], AccurateRip returned [5031BE58]  (AR v2)
Track 12  cannot be verified as accurate (confidence 3)  [BFFDDEDD], AccurateRip returned [1F876385]  (AR v2)

No tracks could be verified as accurate
You may have a different pressing from the one(s) in the database

End of status report

---- CUETools DB Plugin V2.1.3

[CTDB TOCID: 4MaGDsq.xSVtAt5fgHfi.AWVvDI-] found, Submit result: 4MaGDsq.xSVtAt5fgHfi.AWVvDI- has been confirmed
[2324cb74] (4/4) Accurately ripped

==== Log checksum 82E7955694427F89F02330292BF320A3809918F9AB29ACD8C6719EA42485DB1A ====

Отчёт auCDtect Task manager:

Код:

-----------------------

DON'T MODIFY THIS FILE

-----------------------

PERFORMER: auCDtect Task Manager, ver. 1.6.0 RC1 build 1.6.0.1
Copyright (c) 2008-2010 y-soft. All rights reserved
http://y-soft.org

ANALYZER: auCDtect: CD records authenticity detector, version 0.8.2
Copyright (c) 2004 Oleg Berngardt. All rights reserved.
Copyright (c) 2004 Alexander Djourik. All rights reserved.

FILE: Amanda Somerville - Windows.flac
  Size: 328892766 Hash: 42945AFC9F6E113A322FF6E7AB1E135D Accuracy: -m0
  Conclusion: CDDA 100%
  Signature: EA4BAEC3CF9B8D658D3D2B7B3CAA72E2E1757724

Спектрограмма:

Детали торрента:
Название:Amanda Somerville - Windows (2008) [FLAC|Lossless]<pop>
Дата добавления:16 Мар 2014 17:34:08
Размер:314 MB
Раздают:
Качают:0
Форум:Зарубежная поп-музыка (Lossless)

All rights reserved © 2015-2018