TORRENTS43.COM

Скачать Хоббит: Пустошь Смауга / The Hobbit: The Desolation of Smaug (2013) BDRip [720p]


Хоббит: Пустошь Смауга / The Hobbit: The Desolation of Smaug (2013) BDRip [720p]
Год выпуска: 2013
Производство: США, Новая Зеландия, Metro-Goldwyn-Mayer (MGM)
Жанр: Фэнтези, драма, приключения
Перевод: Дублированный [лицензия BD CEE]
Субтитры: Вшитые отключаемые
Язык субтитров: Русский (полные + форс.), украинский (полные + форс.), английский (Full + SDH + SDH-Colored)

Режиссер: Питер Джексон
Продюсер: Кэролинн Каннингэм, Питер Джексон, Фрэнсис Уолш
Актеры: Мартин Фриман, Иэн МакКеллен, Ричард Армитедж, Джеймс Несбитт, Кен Стотт, Грэм МакТавиш, Уильям Кирчер, Стивен Хантер, Дин О’Горман, Эйдан Тернер

Описание фильма:
Продолжение путешествия хоббита Бильбо Бэггинса, волшебника Гэндальфа и 13 отважных гномов. Их компания обязана завершить своё путешествие к Одинокой горе. Там они должны встретиться с величайшей опасностью из всех — созданием куда более ужасающим, чем все их прошлые противники, которое проверит на прочность не только их мужество, но крепость их дружбы и правильность выбранного пути, — драконом Смаугом.



Дата мировой премьеры: 2 декабря 2013
Дата российской премьеры: 18 декабря 2013, «Каро-Премьер»
Дата выхода DVD релиза: 17 апреля 2014, «CP Дистрибуция»

Продолжительность: 02:41:17
Качество видео: BDRip [720p]

Видеокодек: MPEG-4 AVC/H.264
Битрейт видео: ~4856 Kbps
Размер кадра: 1280x534
Аудио #1: Русский: AC-3, 48.0 KHz, 6 ch, 448 Kbps, CBR
Аудио #2: Английский: AC-3, 48.0 KHz, 6 ch, 640 Kbps, CBR
Аудио #3: Украинский: AC-3, 48.0 KHz, 6 ch, 448 Kbps, CBR
Сэмпл: Скачать

MediaInfo

Общее
Уникальный идентификатор : 212451826209595351516206538973364467246 (0x9FD4BBBF086E766DA2BD0A3AD999B62E)
Полное имя : D:\Фильмы\Hobbit.Pustosh.Smauga.2013.BDRip.720p.mkv
Формат : Matroska
Версия формата : Version 4 / Version 2
Размер файла : 7,20 Гбайт
Продолжительность : 2 ч. 41 м.
Общий поток : 6393 Кбит/сек
Название фильма : HELLYWOOD - rip by potroks
Дата кодирования : UTC 2014-03-26 07:36:53
Программа кодирования : mkvmerge v5.9.0 ('On The Loose') built on Dec 15 2012 16:39:58
Библиотека кодирования : libebml v1.3.0 + libmatroska v1.4.0

Видео
Идентификатор : 1
Формат : AVC
Формат/Информация : Advanced Video Codec
Профиль формата : High@L4.1
Параметр CABAC формата : Да
Параметр ReFrames формата : 8 кадров
Идентификатор кодека : V_MPEG4/ISO/AVC
Продолжительность : 2 ч. 41 м.
Битрейт : 4856 Кбит/сек
Ширина : 1280 пикселей
Высота : 534 пикселя
Соотношение сторон : 2,40:1
Режим частоты кадров : Постоянный
Частота кадров : 23,976 кадра/сек
Цветовое пространство : YUV
Субдискретизация насыщенности : 4:2:0
Битовая глубина : 8 бит
Тип развёртки : Прогрессивная
Бит/(Пиксели*Кадры) : 0.296
Размер потока : 5,33 Гбайт (74%)
Заголовок : The Hobbit: The Desolation of Smaug
Библиотека кодирования : x264 core 130 r2273 b3065e6
Настройки программы : cabac=1 / ref=8 / deblock=1:-3:-2 / analyse=0x3:0x133 / me=umh / subme=11 / psy=1 / psy_rd=1.03:0.00 / mixed_ref=1 / me_range=32 / chroma_me=1 / trellis=2 / 8x8dct=1 / cqm=0 / deadzone=21,11 / fast_pskip=1 / chroma_qp_offset=-2 / threads=9 / lookahead_threads=6 / sliced_threads=0 / nr=0 / decimate=0 / interlaced=0 / bluray_compat=0 / constrained_intra=0 / bframes=9 / b_pyramid=2 / b_adapt=2 / b_bias=0 / direct=3 / weightb=1 / open_gop=0 / weightp=2 / keyint=250 / keyint_min=23 / scenecut=40 / intra_refresh=0 / rc_lookahead=60 / rc=2pass / mbtree=0 / bitrate=4856 / ratetol=1.0 / qcomp=0.70 / qpmin=0 / qpmax=69 / qpstep=4 / cplxblur=20.0 / qblur=0.5 / vbv_maxrate=50000 / vbv_bufsize=62500 / nal_hrd=none / ip_ratio=1.35 / pb_ratio=1.25 / aq=1:0.70
Язык : English
Default : Да
Forced : Нет

Аудио #1
Идентификатор : 2
Формат : AC-3
Формат/Информация : Audio Coding 3
Расширение режима : CM (complete main)
Параметр Endianness формата : Big
Идентификатор кодека : A_AC3
Продолжительность : 2 ч. 41 м.
Вид битрейта : Постоянный
Битрейт : 448 Кбит/сек
Каналы : 6 каналов
Расположение каналов : Front: L C R, Side: L R, LFE
Частота : 48,0 КГц
Битовая глубина : 16 бит
Метод сжатия : С потерями
Размер потока : 517 Мбайт (7%)
Заголовок : Dub | DD 5.1 @ 448 kbps - Blu-ray CEE
Язык : Russian
Default : Да
Forced : Нет

Аудио #2
Идентификатор : 3
Формат : AC-3
Формат/Информация : Audio Coding 3
Расширение режима : CM (complete main)
Параметр Endianness формата : Big
Идентификатор кодека : A_AC3
Продолжительность : 2 ч. 41 м.
Вид битрейта : Постоянный
Битрейт : 640 Кбит/сек
Каналы : 6 каналов
Расположение каналов : Front: L C R, Side: L R, LFE
Частота : 48,0 КГц
Битовая глубина : 16 бит
Метод сжатия : С потерями
Размер потока : 738 Мбайт (10%)
Заголовок : Original | DD 5.1 @ 640 kbps
Язык : English
Default : Нет
Forced : Нет

Аудио #3
Идентификатор : 4
Формат : AC-3
Формат/Информация : Audio Coding 3
Расширение режима : CM (complete main)
Параметр Endianness формата : Big
Идентификатор кодека : A_AC3
Продолжительность : 2 ч. 41 м.
Вид битрейта : Постоянный
Битрейт : 448 Кбит/сек
Каналы : 6 каналов
Расположение каналов : Front: L C R, Side: L R, LFE
Частота : 48,0 КГц
Битовая глубина : 16 бит
Метод сжатия : С потерями
Размер потока : 517 Мбайт (7%)
Заголовок : Dub | DD 5.1 @ 448 kbps - Blu-ray CEE
Язык : Ukrainian
Default : Нет
Forced : Нет

Текст #1
Идентификатор : 5
Формат : UTF-8
Идентификатор кодека : S_TEXT/UTF8
Идентификатор кодека/Информация : UTF-8 Plain Text
Заголовок : Forced
Язык : Russian
Default : Да
Forced : Да

Текст #2
Идентификатор : 6
Формат : UTF-8
Идентификатор кодека : S_TEXT/UTF8
Идентификатор кодека/Информация : UTF-8 Plain Text
Язык : Russian
Default : Нет
Forced : Нет

Текст #3
Идентификатор : 7
Формат : UTF-8
Идентификатор кодека : S_TEXT/UTF8
Идентификатор кодека/Информация : UTF-8 Plain Text
Заголовок : Forced
Язык : Ukrainian
Default : Нет
Forced : Нет

Текст #4
Идентификатор : 8
Формат : UTF-8
Идентификатор кодека : S_TEXT/UTF8
Идентификатор кодека/Информация : UTF-8 Plain Text
Язык : Ukrainian
Default : Нет
Forced : Нет

Текст #5
Идентификатор : 9
Формат : UTF-8
Идентификатор кодека : S_TEXT/UTF8
Идентификатор кодека/Информация : UTF-8 Plain Text
Язык : English
Default : Нет
Forced : Нет

Текст #6
Идентификатор : 10
Формат : UTF-8
Идентификатор кодека : S_TEXT/UTF8
Идентификатор кодека/Информация : UTF-8 Plain Text
Заголовок : SDH
Язык : English
Default : Нет
Forced : Нет

Текст #7
Идентификатор : 11
Формат : UTF-8
Идентификатор кодека : S_TEXT/UTF8
Идентификатор кодека/Информация : UTF-8 Plain Text
Заголовок : SDH-COLORED
Язык : English
Default : Нет
Forced : Нет

Меню
00:00:00.000 : en:The Quest for Erebor
00:05:44.093 : en:Wilderland
00:10:10.985 : en:The Master Summons
00:11:10.127 : en:A Commander of Legions
00:13:50.204 : en:Queer Lodgings
00:17:12.656 : en:The Elven-gate
00:21:25.325 : en:Mirkwood
00:24:33.471 : en:Flies and Spiders
00:33:03.272 : en:The Woodland Realm
00:36:05.746 : en:The Elvenking
00:39:38.959 : en:King and Captain
00:41:29.653 : en:Feast of Starlight
00:44:27.289 : en:Barrels Out of Bond
00:55:01.756 : en:The High Fells
00:58:41.768 : en:Bard the Bowman
01:02:05.138 : en:The Nature of Evil
01:05:29.592 : en:Smuggled Cargo
01:09:06.267 : en:Lake-town
01:11:29.118 : en:The Master of Lake-town
01:13:11.762 : en:The Home of Bard
01:19:14.958 : en:"It Is Our Fight"
01:20:48.468 : en:The Prophecy
01:23:12.529 : en:A Warm Welcome
01:27:09.641 : en:The Lonely Mountain
01:30:45.481 : en:A Spell of Concealment
01:33:29.812 : en:On the Doorstep
01:41:57.194 : en:Kingsfoil
01:42:24.471 : en:The Courage of Hobbits
01:44:08.033 : en:The Enemy Revealed
01:47:34.114 : en:Inside Information
01:56:46.332 : en:The Black Arrow
01:57:28.916 : en:In the Dragon's Lair
01:58:03.409 : en:Under Arrest
01:59:42.300 : en:Bilbo the Burglar
02:01:30.574 : en:Smaug the Magnificent
02:04:04.311 : en:Orc Attack
02:07:58.462 : en:Confrontations
02:09:43.108 : en:Elvish Medicine
02:10:58.642 : en:Hunter and Hunted
02:12:31.443 : en:"She Walks in Starlight"
02:13:54.317 : en:A Desperate Plan
02:16:25.427 : en:Duel in Lake-town
02:18:51.489 : en:The Forges Relit
02:26:03.588 : en:Smaug the Golden
02:30:51.208 : en:Credits
Скриншоты:



Смотреть Online

http://moonwalk.cc/video/04507633534cbfe4d99b497c18a55d38/iframe
Детали торрента:
Название:Хоббит: Пустошь Смауга / The Hobbit: The Desolation of Smaug (2013) BDRip [720p]
Дата добавления:26 Мар 2014 12:02:34
Размер:7,2 GB
Раздают:3
Качают:0
Форум:Зарубежные Фильмы (HD, UHD-LQ)

All rights reserved © 2015-2018