TORRENTS43.COM

Скачать Туман из Лондона (1992) SATRip


Туман из Лондона (1992) SATRip
Год выпуска: 1992
Жанр: Детский



Режиссер: Борис Тузанович
Роли озвучивали: Игорь Верник, А. Яброва, Александр Лущик, Людмила Ильина

Описание фильма:
О бескорыстном лисенке, который помог Туману из Лондона.


Продолжительность: 00:07:37
Качество видео: SATRip

Видеокодек: Xvid
Битрейт видео: ~2222 kb/s
Размер кадра: 640x480
Аудиокодек: MP3, 2 ch
Битрейт аудио: 192 kb/s

MediaInfo

Видео
Идентификатор : 0
Формат : MPEG-4 Visual
Профиль формата : Advanced Simple@L5
Параметр BVOP формата : 1
Параметр QPel формата : Нет
Параметр GMC формата : Без точки перехода
Параметр матрицы формата : Default (MPEG)
Идентификатор кодека : XVID
Идентификатор кодека/Подсказка : XviD
Продолжительность : 7 м. 37 с.
Битрейт : 2222 Кбит/сек
Ширина : 640 пикс.
Высота : 480 пикс.
Соотношение сторон : 4:3
Частота кадров : 25,000 кадр/сек
Цветовое пространство : YUV
Подвыборка цветности : 4:2:0
Битовая глубина : 8 бит
Тип развёртки : Прогрессивная
Метод сжатия : С потерями
Бит/(Пиксели*Кадры) : 0.289
Размер потока : 121 Мбайт (92%)
Библиотека кодирования : XviD 1.2.1 (UTC 2008-12-04)

Аудио
Идентификатор : 1
Формат : MPEG Audio
Версия формата : Version 1
Профиль формата : Layer 3
Идентификатор кодека : 55
Идентификатор кодека/Подсказка : MP3
Продолжительность : 7 м. 37 с.
Вид битрейта : Постоянный
Битрейт : 192 Кбит/сек
Канал(ы) : 2 канала(ов)
Частота : 48,0 КГц
Метод сжатия : С потерями
Размер потока : 10,5 Мбайт (8%)
Выравнивание : Соединение по промежуткам
Продолжительность промежутка : 40 мс. (1,00 видеокадр)
Время предзагрузки промежутка : 504 ms
Библиотека кодирования : LAME3.98r
Настройки программы : -m s -V 4 -q 0 -lowpass 18.6 -b 192
Скриншоты:




Детали торрента:
Название:Туман из Лондона (1992) SATRip
Дата добавления:31 Мар 2014 22:29:25
Размер:132 MB
Раздают:2
Качают:0
Форум:Отечественные Мультфильмы для детей

All rights reserved © 2015-2018