TORRENTS43.COM

Скачать Деньги решают все / Money talks (1997) WEB-DLRip


Деньги решают все / Money talks (1997) WEB-DLRip
Год выпуска: 1997
Производство: США, New Line Cinema
Жанр: Комедия, Боевик, Приключения

Описание фильма:
Криминальный телерепортер Джеймс Рассел становится виновником того, что мелкого чернокожего спекулянта Фрэнка Хэтчета сначала арестовывают, а потом обвиняют в убийстве полицейских при побеге из тюремного автобуса. Скрывающийся от полиции Фрэнк вызывает репортера на встречу и требует от него помощи. Джеймс соглашается при условии, что беглец даст ему эксклюзивное сенсационное интервью... Дальше все как в кино: погони, перестрелки и хэппи энд...

Режиссер: Бретт Рэтнер
Актеры: Крис Такер, Ларри Хэнкин, Робертсон Дин, Марти Леви, Марк Беннингхоффен, Дэвид Ли МакЛэйн, Виктор Феррерира, Гари Бриггс, Чарли Шин, Натан Андерсон

Перевод: Профессиональный (многоголосый закадровый) x2, авторский (одноголосый закадровый) x3
Язык субтитров: отсутствуют



Дата мировой премьеры: 22 августа 1997
Дата выхода DVD релиза: 11 июня 2008, «CP-Digital»

Продолжительность: 01:35:43
Качество видео: WEB-DLRip

Видео: XviD, 1541 Кбит/с, 720x304
Аудио 1: Русский (АС3, 6 ch, 448 Кбит/с) - профессиональный (многоголосый закадровый) [R5]
Аудио 2: Русский (АС3, 2 ch, 192 Кбит/с) - профессиональный (многоголосый закадровый) [Россия / ТВ3]
Аудио 3: Русский (АС3, 6 ch, 384 Кбит/с) - авторский (одноголосый закадровый) [Андрей Гаврилов]
Аудио 4: Русский (АС3, 6 ch, 384 Кбит/с) - авторский (одноголосый закадровый) [Василий Горчаков]
Аудио 5: Русский (АС3, 6 ch, 448 Кбит/с) - авторский (одноголосый закадровый) [Юрий Живов]

MediaInfo:

Формат : AVI
Формат/Информация : Audio Video Interleave
Профиль формата : OpenDML
Размер файла : 2,29 Гбайт
Продолжительность : 1 ч. 35 м.
Общий поток : 3432 Кбит/сек
Программа кодирования : VirtualDubModRus 1.5.10.2 (build 2542/release)
Библиотека кодирования : VirtualDubMod build 2542/release

Видео
Идентификатор : 0
Формат : MPEG-4 Visual
Профиль формата : Advanced Simple@L5
Параметр BVOP формата : 1
Параметр QPel формата : Нет
Параметр GMC формата : Без точки перехода
Параметр матрицы формата : Выборочная
Идентификатор кодека : XVID
Идентификатор кодека/Подсказка : XviD
Продолжительность : 1 ч. 35 м.
Битрейт : 1541 Кбит/сек
Ширина : 720 пикселей
Высота : 304 пикселя
Соотношение сторон : 2,35:1
Частота кадров : 23,976 кадра/сек
Цветовое пространство : YUV
Субдискретизация насыщенности : 4:2:0
Битовая глубина : 8 бит
Тип развёртки : Прогрессивная
Метод сжатия : С потерями
Бит/(Пиксели*Кадры) : 0.294
Размер потока : 1,03 Гбайт (45%)
Библиотека кодирования : XviD 1.2.1 (UTC 2008-12-04)

Аудио #1
Идентификатор : 1
Формат : AC-3
Формат/Информация : Audio Coding 3
Расширение режима : CM (complete main)
Параметр Endianness формата : Big
Идентификатор кодека : 2000
Продолжительность : 1 ч. 35 м.
Вид битрейта : Постоянный
Битрейт : 448 Кбит/сек
Каналы : 6 каналов
Расположение каналов : Front: L C R, Side: L R, LFE
Частота : 48,0 КГц
Битовая глубина : 16 бит
Метод сжатия : С потерями
Размер потока : 307 Мбайт (13%)
Выравнивание : Разделение по промежуткам
Продолжительность промежутка : 42 мс. (1,00 видеокадр)
Время предзагрузки промежутка : 500 мс.
Заголовок : Многоголосый R5

Аудио #2
Идентификатор : 2
Формат : AC-3
Формат/Информация : Audio Coding 3
Расширение режима : CM (complete main)
Параметр Endianness формата : Big
Идентификатор кодека : 2000
Продолжительность : 1 ч. 35 м.
Вид битрейта : Постоянный
Битрейт : 192 Кбит/сек
Каналы : 2 канала
Расположение каналов : Front: L R
Частота : 48,0 КГц
Битовая глубина : 16 бит
Метод сжатия : С потерями
Размер потока : 131 Мбайт (6%)
Выравнивание : Разделение по промежуткам
Продолжительность промежутка : 42 мс. (1,00 видеокадр)
Время предзагрузки промежутка : 500 мс.
Заголовок : Многоголосый [Россия/ТВ-3]

Аудио #3
Идентификатор : 3
Формат : AC-3
Формат/Информация : Audio Coding 3
Расширение режима : CM (complete main)
Параметр Endianness формата : Big
Идентификатор кодека : 2000
Продолжительность : 1 ч. 35 м.
Вид битрейта : Постоянный
Битрейт : 384 Кбит/сек
Каналы : 6 каналов
Расположение каналов : Front: L C R, Side: L R, LFE
Частота : 48,0 КГц
Битовая глубина : 16 бит
Метод сжатия : С потерями
Размер потока : 263 Мбайт (11%)
Выравнивание : Разделение по промежуткам
Продолжительность промежутка : 42 мс. (1,00 видеокадр)
Время предзагрузки промежутка : 500 мс.
Заголовок : Гаврилов

Аудио #4
Идентификатор : 4
Формат : AC-3
Формат/Информация : Audio Coding 3
Расширение режима : CM (complete main)
Параметр Endianness формата : Big
Идентификатор кодека : 2000
Продолжительность : 1 ч. 35 м.
Вид битрейта : Постоянный
Битрейт : 384 Кбит/сек
Каналы : 6 каналов
Расположение каналов : Front: L C R, Side: L R, LFE
Частота : 48,0 КГц
Битовая глубина : 16 бит
Метод сжатия : С потерями
Размер потока : 263 Мбайт (11%)
Выравнивание : Разделение по промежуткам
Продолжительность промежутка : 42 мс. (1,00 видеокадр)
Время предзагрузки промежутка : 500 мс.
Заголовок : Горчаков

Аудио #5
Идентификатор : 5
Формат : AC-3
Формат/Информация : Audio Coding 3
Расширение режима : CM (complete main)
Параметр Endianness формата : Big
Идентификатор кодека : 2000
Продолжительность : 1 ч. 35 м.
Вид битрейта : Постоянный
Битрейт : 448 Кбит/сек
Каналы : 6 каналов
Расположение каналов : Front: L C R, Side: L R, LFE
Частота : 48,0 КГц
Битовая глубина : 16 бит
Метод сжатия : С потерями
Размер потока : 307 Мбайт (13%)
Выравнивание : Разделение по промежуткам
Продолжительность промежутка : 42 мс. (1,00 видеокадр)
Время предзагрузки промежутка : 500 мс.
Заголовок : Живов
Скриншоты:




Смотреть Online

http://moonwalk.cc/video/d87b26ef49ddae10d5a4fdffbb1ffa37/iframe
Детали торрента:
Название:Деньги решают все / Money talks (1997) WEB-DLRip
Дата добавления:09 Апр 2014 10:39:17
Размер:2,29 GB
Раздают:
Качают:0
Форум:Зарубежные Фильмы (HD*Rip/LQ, DVDRip, SATRip, VHSRip)

All rights reserved © 2015-2018