TORRENTS43.COM

Скачать Игра престолов / Game of Thrones (2014) HDTVRip [720p] (Сезон 4 полный (10 серий)) (LostFilm)


Игра престолов / Game of Thrones
(Сезон 4 полный (10 серий)) (2014) HDTVRip [720p] (LostFilm)

«Победа или смерть»
Год выпуска: 2014
Страна: США, Великобритания
Жанр: Фэнтези, драма, приключения

Перевод: Профессиональный многоголосый закадровый - LostFilm

Режиссер: Д.Б. Уайсс, Дэвид Беньофф, Алекс Грейвз
Актеры: Питер Динклейдж, Лена Хиди, Николай Костер-Валдау, Мишель Фэйрли, Эмилия Кларк, Кит Харингтон, Айзек Хемпстед-Райт, Ричард Мэдден, Софи Тернер, Мэйси Уильямс и др.

Описание:
К концу подходит время благоденствия, и лето, длившееся несколько десятилетий, угасает. Вокруг средоточия власти Семи королевств, Железного трона, зреет заговор, и в это непростое время король решает искать поддержки у друга юности Эддарда Старка (Шон Бин). В мире, где все — от короля до наемника — рвутся к власти, плетут интриги и готовы вонзить нож в спину, есть место и благородству, состраданию и любви. Между тем, никто не замечает пробуждение тьмы из легенд далеко на Севере — и лишь Стена защищает живых к югу от нее.

Между древней ледяной Стеной и пламенем навсегда ушедших из мира драконов разворачивается «Игра престолов» — долгожданная экранизация культовой саги Джорджа Р. Р. Мартина «Песнь льда и пламени».


СЭМПЛ

Продолжительность: ~01:00:00 серия
Качество видео: HDTVRip 720p
Формат: MKV
Видео: 1280x720 (16:9), 23.976 fps, MPEG4 AVC ~4000 kbps, ~0.181 bit/pixel
Аудио Rus: 48 kHz, AC3, 2 ch, 384 kbps
Аудио Eng: 48 kHz, AC3, 2 ch, 384 kbps

Релиз: LostFilm
Автор перевода: DeadMan совместно с 7kingdoms
Озвучка: Студия «LostFilm»

Тех. данные (MI)

Общее
Game of Thrones - Игра престолов. Сезон 4. LostFilm. 720p\Game.of.Thrones.S04E01.720p.rus.eng.LostFilm.TV.mkv
Формат : Matroska
Версия формата : Version 4 / Version 2
Размер файла : 1,97 Гбайт
Продолжительность : 1 ч. 0 м.
Общий поток : 4686 Кбит/сек
Дата кодирования : UTC 2014-04-09 12:11:04
Программа кодирования : mkvmerge v6.8.0 ('Theme for Great Cities') 64bit built on Mar 2 2014 21:34:26
Библиотека кодирования : libebml v1.3.0 + libmatroska v1.4.1

Видео
Идентификатор : 1
Формат : AVC
Формат/Информация : Advanced Video Codec
Профиль формата : Main@L3.1
Параметр CABAC формата : Нет
Параметр ReFrames формата : 4 кадра
Идентификатор кодека : V_MPEG4/ISO/AVC
Продолжительность : 1 ч. 0 м.
Битрейт : 4000 Кбит/сек
Ширина : 1280 пикселей
Высота : 720 пикселей
Соотношение сторон : 16:9
Режим частоты кадров : Постоянный
Частота кадров : 23,976 кадра/сек
Цветовое пространство : YUV
Субдискретизация насыщенности : 4:2:0
Битовая глубина : 8 бит
Тип развёртки : Прогрессивная
Бит/(Пиксели*Кадры) : 0.181
Размер потока : 1,61 Гбайт (82%)
Библиотека кодирования : x264 core 112 r1834 a51816a
Настройки программы : cabac=0 / ref=3 / deblock=1:0:0 / analyse=0x1:0x111 / me=hex / subme=7 / psy=1 / psy_rd=1.00:0.00 / mixed_ref=1 / me_range=16 / chroma_me=1 / trellis=1 / 8x8dct=0 / cqm=0 / deadzone=21,11 / fast_pskip=1 / chroma_qp_offset=-2 / threads=6 / sliced_threads=0 / nr=0 / decimate=1 / interlaced=0 / constrained_intra=0 / bframes=3 / b_pyramid=2 / b_adapt=1 / b_bias=0 / direct=1 / weightb=1 / open_gop=0 / weightp=2 / keyint=250 / keyint_min=25 / scenecut=40 / intra_refresh=0 / rc_lookahead=40 / rc=abr / mbtree=1 / bitrate=4000 / ratetol=1.0 / qcomp=0.60 / qpmin=0 / qpmax=51 / qpstep=4 / vbv_maxrate=5000 / vbv_bufsize=2000 / ip_ratio=1.40 / aq=1:1.00 / nal_hrd=none
Язык : English
Default : Да
Forced : Нет

Аудио #1
Идентификатор : 2
Формат : AC-3
Формат/Информация : Audio Coding 3
Расширение режима : CM (complete main)
Параметр Endianness формата : Big
Идентификатор кодека : A_AC3
Продолжительность : 1 ч. 0 м.
Вид битрейта : Постоянный
Битрейт : 384 Кбит/сек
Каналы : 2 канала
Расположение каналов : Front: L R
Частота : 48,0 КГц
Битовая глубина : 16 бит
Метод сжатия : С потерями
Задержка видео : 18 мс.
Размер потока : 165 Мбайт (8%)
Язык : Russian
Default : Да
Forced : Нет

Аудио #2
Идентификатор : 3
Формат : AC-3
Формат/Информация : Audio Coding 3
Расширение режима : CM (complete main)
Параметр Endianness формата : Big
Идентификатор кодека : A_AC3
Продолжительность : 1 ч. 0 м.
Вид битрейта : Постоянный
Битрейт : 384 Кбит/сек
Каналы : 2 канала
Расположение каналов : Front: L R
Частота : 48,0 КГц
Битовая глубина : 16 бит
Метод сжатия : С потерями
Задержка видео : 18 мс.
Размер потока : 165 Мбайт (8%)
Язык : English
Default : Нет
Forced : Нет

Список серий

01. Two Swords / Два меча
02. The Lion and the Rose / Лев и Роза
03. Breaker of Chains / Разрушительница оков
04. Oathkeeper / Верный клятве
05. First of His Name / Именуемый Первым
06. The Laws of Gods and Men / Законы богов и людей
07. Mockingbird / Пересмешник
08. The Mountain and the Viper / Гора и Змей
09. The Watchers on the Wall / Дозорные на Стене
10. The Children / Дети



Сериал «Игра престолов / Game of Thrones» на трекере Torrents43.com

Смотреть Online

http://moonwalk.cc/serial/0ffc971a1be73994de075ba90b6b11b6/iframe
Детали торрента:
Название:Игра престолов / Game of Thrones (2014) HDTVRip [720p] (Сезон 4 полный (10 серий)) (LostFilm)
Дата добавления:18 Июн 2014 00:58:08
Размер:18 GB
Раздают:9
Качают:0
Форум:Игра престолов / Game of Thrones

All rights reserved © 2015-2018