TORRENTS43.COM

Скачать Храбрейшие Воины / Bravest Warriors (2012-2018) WEB-DL [H.264/1080p-LQ] (Сезон: 1-4, Серии: 1-50 из ??, Минизоды: 1-5 из 5) [EN, RU Sub] [Обновляемая]


Храбрейшие Воины / Bravest Warriors (2012-2018) WEB-DL [H.264/1080p-LQ]
Производство: США, Frederator Studios
Жанр: Рисованная анимация, Приключения, Комедия

Описание:
Храбрейшие Воины - американский анимационный веб-сериал, созданный Пендлтоном Вордом. Сериал повествует о четырёх 16-летних героях, которые путешествуют по галактикам, спасая милые инопланетные мирки при помощи своих эмоций.
Доп. информация: Первых два сезона выходили на youtube-канале CartoonHangover. Начиная с третьего сериал выходит на VRV.

Режиссер: Брин Бёрнс / Breehn Burns
Персонажи: Алекс Уолш - Крис Кёркман, Лилиана Мами - Бет Тезука, Йен Джонс-Кварти - Волло, Джон Омоандро - Дэнни Васкез



Продолжительность: ~00:05:00 х Серия (1 и 2 сезон), ~00:11:00 х Серия (3 и 4 сезон)
Качество видео: WEB-DL
Перевод: Отсутствует
Язык озвучки: Английский
Субтитры: Русские (отдельным файлом), перевод Павел Самойлов aka Tanis

Видео: AVC/H.264, 1920x1080, ~3000 Kbps, 23.976 fps
Аудио: AAC, 2ch, ~192 Kbps VBR

МедиаИнфо:


General
Complete name : G:\Bravest Warriors [HD]\S01E01 - Time Slime.mp4
Format : MPEG-4
Format profile : Base Media / Version 2
Codec ID : mp42
File size : 125 MiB
Duration : 5mn 39s
Overall bit rate mode : Variable
Overall bit rate : 3 075 Kbps
Encoded date : UTC 2012-11-06 23:10:36
Tagged date : UTC 2012-11-06 23:10:36
gsst : 0
gstd : 339823
gssd : BD075F5C8HH1352444263640068
gshh : r23---lhr14g04.c.youtube.com

Video
ID : 1
Format : AVC
Format/Info : Advanced Video Codec
Format profile : High@L4.0
Format settings, CABAC : Yes
Format settings, ReFrames : 1 frame
Codec ID : avc1
Codec ID/Info : Advanced Video Coding
Duration : 5mn 39s
Bit rate : 2 881 Kbps
Maximum bit rate : 9 089 Kbps
Width : 1 920 pixels
Height : 1 080 pixels
Display aspect ratio : 16:9
Frame rate mode : Constant
Frame rate : 23.976 fps
Color space : YUV
Chroma subsampling : 4:2:0
Bit depth : 8 bits
Scan type : Progressive
Bits/(Pixel*Frame) : 0.058
Stream size : 117 MiB (94%)
Tagged date : UTC 2012-11-06 23:10:37

Audio
ID : 2
Format : AAC
Format/Info : Advanced Audio Codec
Format profile : LC
Codec ID : 40
Duration : 5mn 39s
Bit rate mode : Variable
Bit rate : 192 Kbps
Maximum bit rate : 201 Kbps
Channel(s) : 2 channels
Channel positions : Front: L R
Sampling rate : 44.1 KHz
Compression mode : Lossy
Stream size : 7.77 MiB (6%)
Title : IsoMedia File Produced by Google, 5-11-2011
Encoded date : UTC 2012-11-06 23:10:37
Tagged date : UTC 2012-11-06 23:10:37

Список серий

Сезон 1

1 Time Slime
2 Emotion Lord
3 Butter Lettuce
4 Memory Donk
5 The Bunless
6 Lavarinth
7 Gas-Powered Stick
8 Dan Before Time
9 Cereal Master
10 Ultra Wankershim
11 Catbug
12 Sugarbellies (Lost Episode)

Минизоды

1 Moo-Phobia
2 DramaBug
3 Browser Fail
4 Impossibomb
5 Terrabeth Bytes

Сезон 2

1 Aeon Worm
2 Robo Chris
3 Mexican Touchdown
4 Hamster Priest
5 Jelly Kid Forever
6 The Puppetyville Horror
7 Catbug's Away Team
8 Merewif Tag
9 Dimension Garden
10 The Parasox Pub
11 Season of the Worm
12 Season of the Mitch

Сезон 3

1 Dan of Future Past
2 Himmel Mancheese
3 Ghosts of the See Through Zone
4 Fast Times at Saturn Oaks
5 Everything is Okay
6 Emotion Fjord

Сезон 4

1 Whispers in the Morning
2 You've Grown So Tall You've Grown So Fast
3 Mirror's Reflection
4 Chained to Your Side
5 From the Inside Room
6 All I Wish Is to Be Alone
7 This Dance Ain't for Everybody
8 A Few Stolen Moments
9 No Need to Argue
10 We Can Leave Your Friends Behind
11 Sit Down Sip Some Bouillabaisse
12 Living in a Powder Keg
13 This is Not My Beautiful House
14 Footprints by the Garden Tree
15 Think I'll Miss This One This Year
16 Nothin' Stays the Same
17 I.O.U. for Your Love
18 At Night When the Program's Through
19 All I Get Is Static
20 I'm Smitten, I'm Bitten, I'm Hooked, I'm Cooked

FAQ

Q: У меня неправильно/коряво/перевёрнуто отображаются субтитры надписей в Media Player Classic. Что делать?
A: Отключите "Стиль по умолчанию" (Правая кнопка по видео->Субтитры->Стиль по умолчанию)

Q: У меня Mac и субтитры отображаются коряво либо вместо текста белиберда. Что делать?
A: Используйте MPlayerX или последнюю версию VLC.

Q: В переводе встречаются тройные вопросы (???) - что это?
A: Т.к. с конца 2 сезона сериал выходит без англ. субтитров, перевод осуществляется на слух. ??? я помечаю те места, в переводе которых я не уверен или которые не могу разобрать. Если вы обнаружили такое место и знаете перевод - напишите мне, исправлю.

Q: Очень понравился перевод, хочу поблагодарить переводчика материально. Как это сделать?
A: Пишите в ЛС или на почту - скину кошельки для доната. Спасибо!

График выхода серий в эфир

Новые серии 4 сезона будут выходить в эфир на канале VRV раз в 2 недели по пятницам.
Перевод будет осуществляться только после появления видео в сети.

Раздача ведётся путём добавления новых серий

Раздача ведётся путём добавления новых серий; при каждом добавлении создаётся новый торрент. Чтобы начать докачку новой серии, пользователям необходимо сделать следующее:
(1) остановить скачивание,
(2) удалить старый торрент у себя из клиента (старые серии удалять не надо),
(3) скачать новый торрент и запустить его у себя в клиенте вместо старого, при этом указать клиенту путь в старую папку куда и должно происходить скачивание новых серий.
Ваш клиент при этом должен произвести хеширование (проверку) старой папки (если не производит сам - помогите ему сделать это), и будет докачивать только те серии которых у вас ещё нет. Старые серии при этом не удаляются, а продолжают раздаваться!
Eсли вы уже удалили старые серии, то предотвратить повторную закачку старых серий можно, отжав галочку в соответствующих местах при запуске нового торрента. По возможности, желательно не удалять старые серии как можно дольше чтобы релизёр не столько продолжал раздавать старые серии, а смог сконцентрироваться на новых.
Скриншоты:

Желающим поддержать проект создания перевода и субтитров:


Кошельки для тех, кому понравился перевод, и кто хочет поддержать мой труд:
410011552426170 | 5106 2140 0025 0026 | R969226566530 Z173401952013
Все одноименные релизы, Пора Приключений (Время Приключений) / Adventure Time

15.05.2018 Внимание! Торрент обновлён! Добавлена серия I'm Smitten, I'm Bitten, I'm Hooked, I'm Cooked.

Смотреть Online

http://moonwalk.cc/serial/81c862757c0c4506df6b1b77e6017182/iframe
Детали торрента:
Название:Храбрейшие Воины / Bravest Warriors (2012-2018) WEB-DL [H.264/1080p-LQ] (Сезон: 1-4, Серии: 1-50 из ??, Минизоды: 1-5 из 5) [EN, RU Sub] [Обновляемая]
Дата добавления:15 Май 2018 17:49:51
Размер:6,1 GB
Раздают:7
Качают:9
Форум:Зарубежные Мультсериалы

All rights reserved © 2015-2018