TORRENTS43.COM

Скачать BBC: Люди, из-за которых мы толстеем. Серия 2 / The Men Who Made Us Fat (2012) SATRip


BBC: Люди, из-за которых мы толстеем. Серия 2 / The Men Who Made Us Fat (2012) SATRip
Режиссер / Телекомпания: BBC

Русское название: Люди, из-за которых мы толстеем
Оригинальное название: The Men Who Made Us Fat
Год выпуска: 2012
Жанр: Документальный, познавательный, исследование
Выпущено: Великобритания, BBC, Fresh One Productions

Описание:
По всему миру растет количество людей, страдающих от лишнего веса. Две трети взрослых британцев имеют лишние килограммы, и каждый четвертый из них имеет диагноз: ожирение. В первой части документального фильма "Люди, из-за которых мы толстеем", ведущий Жак Перетти найдет тех, кто несет ответственность за наши привычки в еде. Вы узнаете, какие решения, принимаемые в Америке 40 лет, повлияли на то - как и что мы едим сегодня.

Режиссер: Jacques Peretti

Озвучено: Видео-фильм ТВ
Перевод: Многоголосый закадровый

Продолжительность: 00:47:41

Видеокодек: Xvid
Битрейт видео: ~1750 Кбит/сек
Размер кадра: 720 x 400
Качество видео: SATRip
Аудиокодек: AC-3, 2ch.
Битрейт аудио: 192 Кбит/сек

MediaInfo:

Формат : AVI
Формат/Информация : Audio Video Interleave
Размер файла : 666 Мбайт
Продолжительность : 47 м.
Общий поток : 1951 Кбит/сек
Название фильма : BBC. The Men Who Made Us Fat
Режиссёр : SATRip by Thunder
Программа кодирования : VirtualDubMod 1.5.10.3 | www.virtualdub-fr.org || (build 2550/release)
Формат оригинала/Имя : Documentary

Видео
Идентификатор : 0
Формат : MPEG-4 Visual
Профиль формата : Advanced Simple@L5
Параметр BVOP формата : 2
Параметр QPel формата : Нет
Параметр GMC формата : Без точки перехода
Параметр матрицы формата : Default (H.263)
Идентификатор кодека : XVID
Идентификатор кодека/Подсказка : XviD
Продолжительность : 47 м.
Битрейт : 1750 Кбит/сек
Ширина : 720 пикселей
Высота : 400 пикселей
Соотношение сторон : 16:9
Частота кадров : 25,000 кадров/сек
Цветовое пространство : YUV
Субдискретизация насыщенности : 4:2:0
Битовая глубина : 8 бит
Тип развёртки : Прогрессивная
Метод сжатия : С потерями
Бит/(Пиксели*Кадры) : 0.243
Размер потока : 597 Мбайт (90%)
Библиотека кодирования : XviD 1.2.1 (UTC 2008-12-04)

Аудио
Идентификатор : 1
Формат : AC-3
Формат/Информация : Audio Coding 3
Расширение режима : CM (complete main)
Идентификатор кодека : 2000
Продолжительность : 47 м.
Вид битрейта : Постоянный
Битрейт : 192 Кбит/сек
Каналы : 2 канала
Расположение каналов : Front: L R
Частота : 48,0 КГц
Битовая глубина : 16 бит
Метод сжатия : С потерями
Размер потока : 65,5 Мбайт (10%)
Выравнивание : Разделение по промежуткам
Продолжительность промежутка : 40 мс. (1,00 видеокадр)
Время предзагрузки промежутка : 500 мс.
Скриншоты:
Детали торрента:
Название:BBC: Люди, из-за которых мы толстеем. Серия 2 / The Men Who Made Us Fat (2012) SATRip
Дата добавления:04 Май 2014 08:12:47
Размер:666 MB
Раздают:4
Качают:0
Форум:BBC

All rights reserved © 2015-2018