TORRENTS43.COM

Скачать Киноконцерт, посвященный дню Победы (2013) DVDRip


Киноконцерт, посвященный дню Победы (2013) DVDRip
С Праздником - Днем Победы!

Жанр: Концерт
Описание:
В киноконцерте использованы музыка и песни из фильмов:
- В бой идут одни старики;
- Нормандия-Неман;
- Жажда;
- На войне как на войне;
- Звезда;
- Два бойца;
- За тех кто в море!
- На семи ветрах;
- Друзья и годы;
- Небесный тихоход;
- На дорогах войны;
- …а зори здесь тихие;
- Добровольцы;
- Прощай;
- Хроника пикирующего бомбардировщика.
Режиссеры: Леонид Быков, Жан Древиль, Виктор Трегубович, Александр Файнциммер и др.
Исполняют: Леонид Быков, Николай Рыбников, Михаил Кононов, Олег Борисов, Федор Одиноков, Виктор Павлов, Николай Крючков, Вячеслав Тихонов и др.

Продолжительность: 00:38:17
Качество видео: DVDRip
Видео: Xvid, 1642 kbps, 688x512
Аудио: MP3 2.0, 128 kbps

MediaInfo:

Код:
Полное имя                               : Z:\Концерты\Киноконцерт.avi
Формат                                   : AVI
Формат/Информация                        : Audio Video Interleave
Размер файла                             : 508 Мбайт
Продолжительность                        : 38 м.
Общий поток                              : 1857 Кбит/сек
TCOD                                     : 0
TCDO                                     : 22970400000

Видео
Идентификатор                            : 0
Формат                                   : MPEG-4 Visual
Профиль формата                          : Advanced Simple@L5
Параметр BVOP формата                    : 2
Параметр QPel формата                    : Нет
Параметр GMC формата                     : Без точки перехода
Параметр матрицы формата                 : Default (H.263)
Режим смешивания                         : Сжатый битовый поток
Идентификатор кодека                     : XVID
Идентификатор кодека/Подсказка           : XviD
Продолжительность                        : 38 м.
Битрейт                                  : 1642 Кбит/сек
Ширина                                   : 688 пикселей
Высота                                   : 512 пикселей
Соотношение сторон                       : 4:3
Частота кадров                           : 25,000 кадров/сек
Цветовое пространство                    : YUV
Субдискретизация насыщенности            : 4:2:0
Битовая глубина                          : 8 бит
Тип развёртки                            : Прогрессивная
Метод сжатия                             : С потерями
Бит/(Пиксели*Кадры)                      : 0.186
Размер потока                            : 450 Мбайт (88%)
Библиотека кодирования                   : XviD 64

Аудио
Идентификатор                            : 1
Формат                                   : MPEG Audio
Версия формата                           : Version 1
Профиль формата                          : Layer 3
Режим                                    : Joint stereo
Идентификатор кодека                     : 55
Идентификатор кодека/Подсказка           : MP3
Продолжительность                        : 38 м.
Вид битрейта                             : Постоянный
Битрейт                                  : 128 Кбит/сек
Каналы                                   : 2 канала
Частота                                  : 48,0 КГц
Метод сжатия                             : С потерями
Размер потока                            : 35,1 Мбайт (7%)
Выравнивание                             : Соединение по промежуткам
Продолжительность промежутка             : 250  мс. (6,25 видеокадров)
Время предзагрузки промежутка            : 192  мс.

Скриншоты:

Реставрация релиза: sklad600
Детали торрента:
Название:Киноконцерт, посвященный дню Победы (2013) DVDRip
Дата добавления:08 Май 2014 15:52:55
Размер:508 MB
Раздают:1
Качают:0
Форум:Концерты

All rights reserved © 2015-2018