TORRENTS43.COM

Скачать Illuha - Akari (2014) [FLAC|Lossless]<Ambient>


Illuha Akari
Год: 2014
Издатель (лейбл): 12k
Номер по каталогу: 12K1080
Жанр: Ambient
Продолжительность: 00:58:53

Кодек: FLAC
Битрейт: Lossless
Тип рипа: tracks+.cue

Треклист:

01. Diagrams Of The Physical Interpretation Of Resonance (17:14)
02. Vertical Staves Of Line Drawings And Pointillism (12:14)
03. The Relationship Of Gravity To The Persistence Of Sound (12:48)
04. Structures Based On The Plasticity Of Sphere Surface Tension (7:41)
05. Requiem For Relative Hyperbolas Of Amplified And Decaying Waveforms (8:56)

Отчёт ЕАС:

Код:

Exact Audio Copy V1.0 beta 3 from 29. August 2011

EAC extraction logfile from 18. March 2014, 19:25

Illuha / Akari

Used drive  : ASUS    DRW-20B1LT   Adapter: 0  ID: 1

Read mode               : Secure
Utilize accurate stream : Yes
Defeat audio cache      : Yes
Make use of C2 pointers : No

Read offset correction                      : 6
Overread into Lead-In and Lead-Out          : No
Fill up missing offset samples with silence : Yes
Delete leading and trailing silent blocks   : No
Null samples used in CRC calculations       : Yes
Used interface                              : Native Win32 interface for Win NT & 2000
Gap handling                                : Appended to previous track

Used output format              : User Defined Encoder
Selected bitrate                : 1024 kBit/s
Quality                         : High
Add ID3 tag                     : No
Command line compressor         : C:\Program Files (x86)\FLAC\flac.exe
Additional command line options : -8 -V -T "ARTIST=%artist%" -T "TITLE=%title%" -T "ALBUM=%albumtitle%" -T "DATE=%year%" -T "TRACKNUMBER=%tracknr1%" -T "GENRE=%genre%" -T "DISCNUMBER=%cdnumber%" -T "TOTALDISCS=%totalcds%" -T "TOTALTRACKS=%numtracks%" %source% -o %dest%

TOC of the extracted CD

     Track |   Start  |  Length  | Start sector | End sector
    ---------------------------------------------------------
        1  |  0:00.00 | 17:14.17 |         0    |    77566
        2  | 17:14.17 | 12:13.45 |     77567    |   132586
        3  | 29:27.62 | 12:47.72 |    132587    |   190183
        4  | 42:15.59 |  7:41.04 |    190184    |   224762
        5  | 49:56.63 |  8:56.10 |    224763    |   264972

Track  1

     Filename U:\Illuha - Akari\01_Illuha_Diagrams_Of_The_Physical_Interpretation_Of_Resonance.wav

     Pre-gap length  0:00:02.00

     Peak level 94.5 %
     Extraction speed 6.9 X
     Track quality 100.0 %
     Test CRC EF93C2C0
     Copy CRC EF93C2C0
     Track not present in AccurateRip database
     Copy OK

Track  2

     Filename U:\Illuha - Akari\02_Illuha_Vertical_Staves_Of_Line_Drawings_And_Pointillism.wav

     Pre-gap length  0:00:02.00

     Peak level 76.5 %
     Extraction speed 8.6 X
     Track quality 100.0 %
     Test CRC 09237DF2
     Copy CRC 09237DF2
     Track not present in AccurateRip database
     Copy OK

Track  3

     Filename U:\Illuha - Akari\03_Illuha_The_Relationship_Of_Gravity_To_The_Persistence_Of_Sound.wav

     Pre-gap length  0:00:02.00

     Peak level 84.9 %
     Extraction speed 9.9 X
     Track quality 100.0 %
     Test CRC 10D390BC
     Copy CRC 10D390BC
     Track not present in AccurateRip database
     Copy OK

Track  4

     Filename U:\Illuha - Akari\04_Illuha_Structures_Based_On_The_Plasticity_Of_Sphere_Surface_Tension.wav

     Pre-gap length  0:00:02.00

     Peak level 61.6 %
     Extraction speed 10.4 X
     Track quality 100.0 %
     Test CRC EDD56ECD
     Copy CRC EDD56ECD
     Track not present in AccurateRip database
     Copy OK

Track  5

     Filename U:\Illuha - Akari\05_Illuha_Requiem_For_Relative_Hyperbolas_Of_Amplified_And_Decaying_Waveforms.wav

     Pre-gap length  0:00:02.00

     Peak level 98.3 %
     Extraction speed 10.2 X
     Track quality 99.9 %
     Test CRC 03BBF374
     Copy CRC 03BBF374
     Track not present in AccurateRip database
     Copy OK

None of the tracks are present in the AccurateRip database

No errors occurred

End of status report

==== Log checksum C36F3E5CF3DEE2111C6DE411558144333BAFDF38584F9BF9EC3EF97802C24204 ====

Отчёт auCDtect Task manager:

Код:

-----------------------

DON'T MODIFY THIS FILE

-----------------------

PERFORMER: auCDtect Task Manager, ver. 1.5.1RC6 build 1.5.1.7
Copyright (c) 2008-2010 y-soft. All rights reserved
http://y-soft.org

ANALYZER: auCDtect: CD records authenticity detector, version 0.8.2
Copyright (c) 2004 Oleg Berngardt. All rights reserved.
Copyright (c) 2004 Alexander Djourik. All rights reserved.

FILE: 05. Requiem For Relative Hyperbolas Of Amplified And Decaying Waveforms.flac
  Size: 39991568 Hash: 6C981CCC23987B239CA40DFE587C4427 Accuracy: -m0
  Conclusion: CDDA 43%
  Signature: 2F8E5E50F5F96D7227DE56A90FA908D8CEA9BA28
FILE: 04. Structures Based On The Plasticity Of Sphere Surface Tension.flac
  Size: 37749294 Hash: 887E8ED4912761C053A1FDEA5C9C1FF8 Accuracy: -m0
  Conclusion: CDDA 99%
  Signature: 2AAD62B35BD1B9EEE136217D456F5BE3A61939B4
FILE: 03. The Relationship Of Gravity To The Persistence Of Sound.flac
  Size: 59436054 Hash: 106EC6151BC70A3043A03FFA6A9384AA Accuracy: -m0
  Conclusion: MPEG 80%
  Signature: 57F21CFEF0F24B751B156067E95EDC6C76FA4425
FILE: 02. Vertical Staves Of Line Drawings And Pointillism.flac
  Size: 59945377 Hash: 568AE01BDCAA4D61AB99BEE28284CE4D Accuracy: -m0
  Conclusion: CDDA 100%
  Signature: D1C7BC5BD647C765169F79BD635170F4F017C6D2
FILE: 01. Diagrams Of The Physical Interpretation Of Resonance.flac
  Size: 84333790 Hash: 6E05074362D645B6ECDABB02C45CF882 Accuracy: -m0
  Conclusion: MPEG 97%
  Signature: 21C676AF24312896CFFA1CCBD83EB23CF7C869BB

Спектрограмма:

Discogs

Детали торрента:
Название:Illuha - Akari (2014) [FLAC|Lossless]<Ambient>
Дата добавления:20 Май 2014 20:05:43
Размер:269 MB
Раздают:1
Качают:0
Форум:Easy listening (Lossless)

All rights reserved © 2015-2018