TORRENTS43.COM

Скачать Кипелов - Best (Single) (2003) [ALAC|Tracks]<Heavy Metal>


Кипелов - Best (Single) (2003)
Сингл не имеет никакого отношения к официальной дискографии.

Год: 2003
Жанр: Heavy Metal
Продолжительность: 01:14:24

Кодек: ALAC
Битрейт: Lossless
Тип раздачи: Tracks
Обложки: Вшиты
Кодирование: Easy CD-DA Extractor + iTunes

Это издание скорее все же стоит называть пиратским, хоть оно было выпущено лэйблом "Русский Хит" и содержало материал с ещё не выпущенного концертного альбома "Путь наверх". Однако согласие на создание данной сомнительной компиляции никто из группы "Кипелов" не давал, что и послужило началом судебных разбирательств, которые в итоге благополучно закончились в пользу Кипелова.

Издатель: «Русский хит»
Релиз: 2003г.

От себя: Скорее релиз для тех, кто собирает коллекции всего выпущенного, к похожим дискам отношу "Возвращение в Москву - bootleg" - 2011 года, "Редкие песни" - 2010 года и еще часть дисков такого рода.

Треклист:
01. Путь наверх
02. Я не сошел с ума
03. Грязь
04. Дьявольский зной
05. Castlevania
06. Я свободен
07. Следуй за мнной
08. Закат
09. Тореро
10. Потерянный рай
11. Возьми моё сердце
12. Воля и разум
13. Встань, страх преодолей
14. Мечты

Mediainfo:

Код:

Общее
Полное имя                               : /Users/Denis/Library/Containers/net.mediaarea.mediainfo.mac/Data/Music/iTunes/iTunes Media/Music/Кипелов/Best/01 Путь наверх.m4a
Формат                                   : MPEG-4
Профиль формата                          : Apple audio with iTunes info
Идентификатор кодека                     : M4A
Размер файла                             : 57,0 Мбайт
Продолжительность                        : 8 м. 16 с.
Режим общего битрейта                    : Переменный
Общий поток                              : 962 Кбит/сек
Альбом                                   : Best
Альбом/Исполнитель                       : Кипелов
Трек                                     : Путь наверх
Трек/Положение                           : 1
Исполнитель                              : Кипелов
Жанр                                     : Heavy Metal
Дата записи                              : 2003
Дата кодирования                         : UTC 2014-05-24 16:58:30
Дата пометки                             : UTC 2014-05-24 21:47:12
Программа кодирования                    : Easy CD-DA Extractor (http://www.poikosoft.com)
Обложка                                  : Yes
Примечание                               : Track 1

Аудио
Идентификатор                            : 1
Формат                                   : ALAC
Идентификатор кодека                     : alac
Идентификатор кодека/Информация          : Apple Lossless Audio Codec
Продолжительность                        : 8 м. 16 с.
Duration_LastFrame                       : -56 мс.
Вид битрейта                             : Переменный
Битрейт                                  : 955 Кбит/сек
Каналы                                   : 2 канала
Частота                                  : 44,1 КГц
Битовая глубина                          : 16 бит
Размер потока                            : 56,5 Мбайт (99%)
Язык                                     : English
Дата кодирования                         : UTC 2014-05-24 16:58:30
Дата пометки                             : UTC 2014-05-24 21:47:12

Общее
Полное имя                               : /Users/Denis/Library/Containers/net.mediaarea.mediainfo.mac/Data/Music/iTunes/iTunes Media/Music/Кипелов/Best/02 Я не сошел с ума.m4a
Формат                                   : MPEG-4
Профиль формата                          : Apple audio with iTunes info
Идентификатор кодека                     : M4A
Размер файла                             : 41,5 Мбайт
Продолжительность                        : 5 м. 37 с.
Режим общего битрейта                    : Переменный
Общий поток                              : 1031 Кбит/сек
Альбом                                   : Best
Альбом/Исполнитель                       : Кипелов
Трек                                     : Я не сошел с ума
Трек/Положение                           : 2
Исполнитель                              : Кипелов
Жанр                                     : Heavy Metal
Дата записи                              : 2003
Дата кодирования                         : UTC 2014-05-24 16:58:30
Дата пометки                             : UTC 2014-05-24 21:47:17
Программа кодирования                    : Easy CD-DA Extractor (http://www.poikosoft.com)
Обложка                                  : Yes
Примечание                               : Track 2

Аудио
Идентификатор                            : 1
Формат                                   : ALAC
Идентификатор кодека                     : alac
Идентификатор кодека/Информация          : Apple Lossless Audio Codec
Продолжительность                        : 5 м. 37 с.
Duration_LastFrame                       : -46 мс.
Вид битрейта                             : Переменный
Битрейт                                  : 1020 Кбит/сек
Каналы                                   : 2 канала
Частота                                  : 44,1 КГц
Битовая глубина                          : 16 бит
Размер потока                            : 41,0 Мбайт (99%)
Язык                                     : English
Дата кодирования                         : UTC 2014-05-24 16:58:30
Дата пометки                             : UTC 2014-05-24 21:47:17

Общее
Полное имя                               : /Users/Denis/Library/Containers/net.mediaarea.mediainfo.mac/Data/Music/iTunes/iTunes Media/Music/Кипелов/Best/03 Грязь.m4a
Формат                                   : MPEG-4
Профиль формата                          : Apple audio with iTunes info
Идентификатор кодека                     : M4A
Размер файла                             : 33,1 Мбайт
Продолжительность                        : 4 м. 31 с.
Режим общего битрейта                    : Переменный
Общий поток                              : 1024 Кбит/сек
Альбом                                   : Best
Альбом/Исполнитель                       : Кипелов
Трек                                     : Грязь
Трек/Положение                           : 3
Исполнитель                              : Кипелов
Жанр                                     : Heavy Metal
Дата записи                              : 2003
Дата кодирования                         : UTC 2014-05-24 16:59:42
Дата пометки                             : UTC 2014-05-24 21:47:22
Программа кодирования                    : Easy CD-DA Extractor (http://www.poikosoft.com)
Обложка                                  : Yes
Примечание                               : Track 3

Аудио
Идентификатор                            : 1
Формат                                   : ALAC
Идентификатор кодека                     : alac
Идентификатор кодека/Информация          : Apple Lossless Audio Codec
Продолжительность                        : 4 м. 31 с.
Duration_LastFrame                       : -89 мс.
Вид битрейта                             : Переменный
Битрейт                                  : 1011 Кбит/сек
Каналы                                   : 2 канала
Частота                                  : 44,1 КГц
Битовая глубина                          : 16 бит
Размер потока                            : 32,7 Мбайт (99%)
Язык                                     : English
Дата кодирования                         : UTC 2014-05-24 16:59:42
Дата пометки                             : UTC 2014-05-24 21:47:22

Общее
Полное имя                               : /Users/Denis/Library/Containers/net.mediaarea.mediainfo.mac/Data/Music/iTunes/iTunes Media/Music/Кипелов/Best/04 Дьявольский зной.m4a
Формат                                   : MPEG-4
Профиль формата                          : Apple audio with iTunes info
Идентификатор кодека                     : M4A
Размер файла                             : 38,7 Мбайт
Продолжительность                        : 5 м. 17 с.
Режим общего битрейта                    : Переменный
Общий поток                              : 1023 Кбит/сек
Альбом                                   : Best
Альбом/Исполнитель                       : Кипелов
Трек                                     : Дьявольский зной
Трек/Положение                           : 4
Исполнитель                              : Кипелов
Жанр                                     : Heavy Metal
Дата записи                              : 2003
Дата кодирования                         : UTC 2014-05-24 17:00:01
Дата пометки                             : UTC 2014-05-24 21:47:26
Программа кодирования                    : Easy CD-DA Extractor (http://www.poikosoft.com)
Обложка                                  : Yes
Примечание                               : Track 4

Аудио
Идентификатор                            : 1
Формат                                   : ALAC
Идентификатор кодека                     : alac
Идентификатор кодека/Информация          : Apple Lossless Audio Codec
Продолжительность                        : 5 м. 17 с.
Duration_LastFrame                       : -51 мс.
Вид битрейта                             : Переменный
Битрейт                                  : 1011 Кбит/сек
Каналы                                   : 2 канала
Частота                                  : 44,1 КГц
Битовая глубина                          : 16 бит
Размер потока                            : 38,2 Мбайт (99%)
Язык                                     : English
Дата кодирования                         : UTC 2014-05-24 17:00:01
Дата пометки                             : UTC 2014-05-24 21:47:26

Общее
Полное имя                               : /Users/Denis/Library/Containers/net.mediaarea.mediainfo.mac/Data/Music/iTunes/iTunes Media/Music/Кипелов/Best/05 Castlevania.m4a
Формат                                   : MPEG-4
Профиль формата                          : Apple audio with iTunes info
Идентификатор кодека                     : M4A
Размер файла                             : 45,0 Мбайт
Продолжительность                        : 6 м. 14 с.
Режим общего битрейта                    : Переменный
Общий поток                              : 1008 Кбит/сек
Альбом                                   : Best
Альбом/Исполнитель                       : Кипелов
Трек                                     : Castlevania
Трек/Положение                           : 5
Исполнитель                              : Кипелов
Жанр                                     : Heavy Metal
Дата записи                              : 2003
Дата кодирования                         : UTC 2014-05-24 17:00:22
Дата пометки                             : UTC 2014-05-24 21:47:31
Программа кодирования                    : Easy CD-DA Extractor (http://www.poikosoft.com)
Обложка                                  : Yes
Примечание                               : Track 5

Аудио
Идентификатор                            : 1
Формат                                   : ALAC
Идентификатор кодека                     : alac
Идентификатор кодека/Информация          : Apple Lossless Audio Codec
Продолжительность                        : 6 м. 14 с.
Duration_LastFrame                       : -62 мс.
Вид битрейта                             : Переменный
Битрейт                                  : 998 Кбит/сек
Каналы                                   : 2 канала
Частота                                  : 44,1 КГц
Битовая глубина                          : 16 бит
Размер потока                            : 44,6 Мбайт (99%)
Язык                                     : English
Дата кодирования                         : UTC 2014-05-24 17:00:22
Дата пометки                             : UTC 2014-05-24 21:47:31

Общее
Полное имя                               : /Users/Denis/Library/Containers/net.mediaarea.mediainfo.mac/Data/Music/iTunes/iTunes Media/Music/Кипелов/Best/06 Я свободен.m4a
Формат                                   : MPEG-4
Профиль формата                          : Apple audio with iTunes info
Идентификатор кодека                     : M4A
Размер файла                             : 48,8 Мбайт
Продолжительность                        : 7 м. 10 с.
Режим общего битрейта                    : Переменный
Общий поток                              : 952 Кбит/сек
Альбом                                   : Best
Альбом/Исполнитель                       : Кипелов
Трек                                     : Я свободен
Трек/Положение                           : 6
Исполнитель                              : Кипелов
Жанр                                     : Heavy Metal
Дата записи                              : 2003
Дата кодирования                         : UTC 2014-05-24 17:00:55
Дата пометки                             : UTC 2014-05-24 21:47:40
Программа кодирования                    : Easy CD-DA Extractor (http://www.poikosoft.com)
Обложка                                  : Yes
Примечание                               : Track 6

Аудио
Идентификатор                            : 1
Формат                                   : ALAC
Идентификатор кодека                     : alac
Идентификатор кодека/Информация          : Apple Lossless Audio Codec
Продолжительность                        : 7 м. 10 с.
Duration_LastFrame                       : -86 мс.
Вид битрейта                             : Переменный
Битрейт                                  : 944 Кбит/сек
Каналы                                   : 2 канала
Частота                                  : 44,1 КГц
Битовая глубина                          : 16 бит
Размер потока                            : 48,4 Мбайт (99%)
Язык                                     : English
Дата кодирования                         : UTC 2014-05-24 17:00:55
Дата пометки                             : UTC 2014-05-24 21:47:40

Общее
Полное имя                               : /Users/Denis/Library/Containers/net.mediaarea.mediainfo.mac/Data/Music/iTunes/iTunes Media/Music/Кипелов/Best/07 Следуй за мной.m4a
Формат                                   : MPEG-4
Профиль формата                          : Apple audio with iTunes info
Идентификатор кодека                     : M4A
Размер файла                             : 32,2 Мбайт
Продолжительность                        : 4 м. 30 с.
Режим общего битрейта                    : Переменный
Общий поток                              : 997 Кбит/сек
Альбом                                   : Best
Альбом/Исполнитель                       : Кипелов
Трек                                     : Следуй за мной
Трек/Положение                           : 7
Исполнитель                              : Кипелов
Жанр                                     : Heavy Metal
Дата записи                              : 2003
Дата кодирования                         : UTC 2014-05-24 17:01:28
Дата пометки                             : UTC 2014-05-24 21:47:44
Программа кодирования                    : Easy CD-DA Extractor (http://www.poikosoft.com)
Обложка                                  : Yes
Примечание                               : Track 7

Аудио
Идентификатор                            : 1
Формат                                   : ALAC
Идентификатор кодека                     : alac
Идентификатор кодека/Информация          : Apple Lossless Audio Codec
Продолжительность                        : 4 м. 30 с.
Duration_LastFrame                       : -50 мс.
Вид битрейта                             : Переменный
Битрейт                                  : 984 Кбит/сек
Каналы                                   : 2 канала
Частота                                  : 44,1 КГц
Битовая глубина                          : 16 бит
Размер потока                            : 31,8 Мбайт (99%)
Язык                                     : English
Дата кодирования                         : UTC 2014-05-24 17:01:28
Дата пометки                             : UTC 2014-05-24 21:47:44

Общее
Полное имя                               : /Users/Denis/Library/Containers/net.mediaarea.mediainfo.mac/Data/Music/iTunes/iTunes Media/Music/Кипелов/Best/08 Закат.m4a
Формат                                   : MPEG-4
Профиль формата                          : Apple audio with iTunes info
Идентификатор кодека                     : M4A
Размер файла                             : 22,9 Мбайт
Продолжительность                        : 3 м. 21 с.
Режим общего битрейта                    : Переменный
Общий поток                              : 955 Кбит/сек
Альбом                                   : Best
Альбом/Исполнитель                       : Кипелов
Трек                                     : Закат
Трек/Положение                           : 8
Исполнитель                              : Кипелов
Жанр                                     : Heavy Metal
Дата записи                              : 2003
Дата кодирования                         : UTC 2014-05-24 17:01:48
Дата пометки                             : UTC 2014-05-24 21:47:46
Программа кодирования                    : Easy CD-DA Extractor (http://www.poikosoft.com)
Обложка                                  : Yes
Примечание                               : Track 8

Аудио
Идентификатор                            : 1
Формат                                   : ALAC
Идентификатор кодека                     : alac
Идентификатор кодека/Информация          : Apple Lossless Audio Codec
Продолжительность                        : 3 м. 21 с.
Duration_LastFrame                       : -70 мс.
Вид битрейта                             : Переменный
Битрейт                                  : 938 Кбит/сек
Каналы                                   : 2 канала
Частота                                  : 44,1 КГц
Битовая глубина                          : 16 бит
Размер потока                            : 22,5 Мбайт (98%)
Язык                                     : English
Дата кодирования                         : UTC 2014-05-24 17:01:48
Дата пометки                             : UTC 2014-05-24 21:47:46

Общее
Полное имя                               : /Users/Denis/Library/Containers/net.mediaarea.mediainfo.mac/Data/Music/iTunes/iTunes Media/Music/Кипелов/Best/09 Тореро.m4a
Формат                                   : MPEG-4
Профиль формата                          : Apple audio with iTunes info
Идентификатор кодека                     : M4A
Размер файла                             : 40,1 Мбайт
Продолжительность                        : 5 м. 27 с.
Режим общего битрейта                    : Переменный
Общий поток                              : 1028 Кбит/сек
Альбом                                   : Best
Альбом/Исполнитель                       : Кипелов
Трек                                     : Тореро
Трек/Положение                           : 9
Исполнитель                              : Кипелов
Жанр                                     : Heavy Metal
Дата записи                              : 2003
Дата кодирования                         : UTC 2014-05-24 17:02:02
Дата пометки                             : UTC 2014-05-24 21:47:50
Программа кодирования                    : Easy CD-DA Extractor (http://www.poikosoft.com)
Обложка                                  : Yes
Примечание                               : Track 9

Аудио
Идентификатор                            : 1
Формат                                   : ALAC
Идентификатор кодека                     : alac
Идентификатор кодека/Информация          : Apple Lossless Audio Codec
Продолжительность                        : 5 м. 27 с.
Duration_LastFrame                       : -2 мс.
Вид битрейта                             : Переменный
Битрейт                                  : 1017 Кбит/сек
Каналы                                   : 2 канала
Частота                                  : 44,1 КГц
Битовая глубина                          : 16 бит
Размер потока                            : 39,7 Мбайт (99%)
Язык                                     : English
Дата кодирования                         : UTC 2014-05-24 17:02:02
Дата пометки                             : UTC 2014-05-24 21:47:50

Общее
Полное имя                               : /Users/Denis/Library/Containers/net.mediaarea.mediainfo.mac/Data/Music/iTunes/iTunes Media/Music/Кипелов/Best/10 Потерянный рай.m4a
Формат                                   : MPEG-4
Профиль формата                          : Apple audio with iTunes info
Идентификатор кодека                     : M4A
Размер файла                             : 38,3 Мбайт
Продолжительность                        : 5 м. 22 с.
Режим общего битрейта                    : Переменный
Общий поток                              : 995 Кбит/сек
Альбом                                   : Best
Альбом/Исполнитель                       : Кипелов
Трек                                     : Потерянный рай
Трек/Положение                           : 10
Исполнитель                              : Кипелов
Жанр                                     : Heavy Metal
Дата записи                              : 2003
Дата кодирования                         : UTC 2014-05-24 17:02:28
Дата пометки                             : UTC 2014-05-24 21:47:55
Программа кодирования                    : Easy CD-DA Extractor (http://www.poikosoft.com)
Обложка                                  : Yes
Примечание                               : Track 10

Аудио
Идентификатор                            : 1
Формат                                   : ALAC
Идентификатор кодека                     : alac
Идентификатор кодека/Информация          : Apple Lossless Audio Codec
Продолжительность                        : 5 м. 22 с.
Duration_LastFrame                       : -38 мс.
Вид битрейта                             : Переменный
Битрейт                                  : 984 Кбит/сек
Каналы                                   : 2 канала
Частота                                  : 44,1 КГц
Битовая глубина                          : 16 бит
Размер потока                            : 37,8 Мбайт (99%)
Язык                                     : English
Дата кодирования                         : UTC 2014-05-24 17:02:28
Дата пометки                             : UTC 2014-05-24 21:47:55

Общее
Полное имя                               : /Users/Denis/Library/Containers/net.mediaarea.mediainfo.mac/Data/Music/iTunes/iTunes Media/Music/Кипелов/Best/11 Возьми моё сердце.m4a
Формат                                   : MPEG-4
Профиль формата                          : Apple audio with iTunes info
Идентификатор кодека                     : M4A
Размер файла                             : 27,7 Мбайт
Продолжительность                        : 3 м. 51 с.
Режим общего битрейта                    : Переменный
Общий поток                              : 1002 Кбит/сек
Альбом                                   : Best
Альбом/Исполнитель                       : Кипелов
Трек                                     : Возьми моё сердце
Трек/Положение                           : 11
Исполнитель                              : Кипелов
Жанр                                     : Heavy Metal
Дата записи                              : 2003
Дата кодирования                         : UTC 2014-05-24 17:02:52
Дата пометки                             : UTC 2014-05-24 21:47:59
Программа кодирования                    : Easy CD-DA Extractor (http://www.poikosoft.com)
Обложка                                  : Yes
Примечание                               : Track 11

Аудио
Идентификатор                            : 1
Формат                                   : ALAC
Идентификатор кодека                     : alac
Идентификатор кодека/Информация          : Apple Lossless Audio Codec
Продолжительность                        : 3 м. 51 с.
Duration_LastFrame                       : -42 мс.
Вид битрейта                             : Переменный
Битрейт                                  : 987 Кбит/сек
Каналы                                   : 2 канала
Частота                                  : 44,1 КГц
Битовая глубина                          : 16 бит
Размер потока                            : 27,3 Мбайт (98%)
Язык                                     : English
Дата кодирования                         : UTC 2014-05-24 17:02:52
Дата пометки                             : UTC 2014-05-24 21:47:59

Общее
Полное имя                               : /Users/Denis/Library/Containers/net.mediaarea.mediainfo.mac/Data/Music/iTunes/iTunes Media/Music/Кипелов/Best/12 Воля и разум.m4a
Формат                                   : MPEG-4
Профиль формата                          : Apple audio with iTunes info
Идентификатор кодека                     : M4A
Размер файла                             : 40,6 Мбайт
Продолжительность                        : 5 м. 43 с.
Режим общего битрейта                    : Переменный
Общий поток                              : 992 Кбит/сек
Альбом                                   : Best
Альбом/Исполнитель                       : Кипелов
Трек                                     : Воля и разум
Трек/Положение                           : 12
Исполнитель                              : Кипелов
Жанр                                     : Heavy Metal
Дата записи                              : 2003
Дата кодирования                         : UTC 2014-05-24 17:03:08
Дата пометки                             : UTC 2014-05-24 21:48:04
Программа кодирования                    : Easy CD-DA Extractor (http://www.poikosoft.com)
Обложка                                  : Yes
Примечание                               : Track 12

Аудио
Идентификатор                            : 1
Формат                                   : ALAC
Идентификатор кодека                     : alac
Идентификатор кодека/Информация          : Apple Lossless Audio Codec
Продолжительность                        : 5 м. 43 с.
Duration_LastFrame                       : -15 мс.
Вид битрейта                             : Переменный
Битрейт                                  : 981 Кбит/сек
Каналы                                   : 2 канала
Частота                                  : 44,1 КГц
Битовая глубина                          : 16 бит
Размер потока                            : 40,2 Мбайт (99%)
Язык                                     : English
Дата кодирования                         : UTC 2014-05-24 17:03:08
Дата пометки                             : UTC 2014-05-24 21:48:04

Общее
Полное имя                               : /Users/Denis/Library/Containers/net.mediaarea.mediainfo.mac/Data/Music/iTunes/iTunes Media/Music/Кипелов/Best/13 Встань, страх преодолей.m4a
Формат                                   : MPEG-4
Профиль формата                          : Apple audio with iTunes info
Идентификатор кодека                     : M4A
Размер файла                             : 34,2 Мбайт
Продолжительность                        : 4 м. 43 с.
Режим общего битрейта                    : Переменный
Общий поток                              : 1014 Кбит/сек
Альбом                                   : Best
Альбом/Исполнитель                       : Кипелов
Трек                                     : Встань, страх преодолей
Трек/Положение                           : 13
Исполнитель                              : Кипелов
Жанр                                     : Heavy Metal
Дата записи                              : 2003
Дата кодирования                         : UTC 2014-05-24 17:03:36
Дата пометки                             : UTC 2014-05-24 21:48:09
Программа кодирования                    : Easy CD-DA Extractor (http://www.poikosoft.com)
Обложка                                  : Yes
Примечание                               : Track 13

Аудио
Идентификатор                            : 1
Формат                                   : ALAC
Идентификатор кодека                     : alac
Идентификатор кодека/Информация          : Apple Lossless Audio Codec
Продолжительность                        : 4 м. 43 с.
Duration_LastFrame                       : -83 мс.
Вид битрейта                             : Переменный
Битрейт                                  : 1002 Кбит/сек
Каналы                                   : 2 канала
Частота                                  : 44,1 КГц
Битовая глубина                          : 16 бит
Размер потока                            : 33,8 Мбайт (99%)
Язык                                     : English
Дата кодирования                         : UTC 2014-05-24 17:03:36
Дата пометки                             : UTC 2014-05-24 21:48:09

Общее
Полное имя                               : /Users/Denis/Library/Containers/net.mediaarea.mediainfo.mac/Data/Music/iTunes/iTunes Media/Music/Кипелов/Best/14 Мечты.m4a
Формат                                   : MPEG-4
Профиль формата                          : Apple audio with iTunes info
Идентификатор кодека                     : M4A
Размер файла                             : 30,8 Мбайт
Продолжительность                        : 4 м. 16 с.
Режим общего битрейта                    : Переменный
Общий поток                              : 1006 Кбит/сек
Альбом                                   : Best
Альбом/Исполнитель                       : Кипелов
Трек                                     : Мечты
Трек/Положение                           : 14
Исполнитель                              : Кипелов
Жанр                                     : Heavy Metal
Дата записи                              : 2003
Дата кодирования                         : UTC 2014-05-24 17:03:56
Дата пометки                             : UTC 2014-05-24 21:48:15
Программа кодирования                    : Easy CD-DA Extractor (http://www.poikosoft.com)
Обложка                                  : Yes
Примечание                               : Track 14

Аудио
Идентификатор                            : 1
Формат                                   : ALAC
Идентификатор кодека                     : alac
Идентификатор кодека/Информация          : Apple Lossless Audio Codec
Продолжительность                        : 4 м. 16 с.
Duration_LastFrame                       : -93 мс.
Вид битрейта                             : Переменный
Битрейт                                  : 992 Кбит/сек
Каналы                                   : 2 канала
Частота                                  : 44,1 КГц
Битовая глубина                          : 16 бит
Размер потока                            : 30,4 Мбайт (99%)
Язык                                     : English
Дата кодирования                         : UTC 2014-05-24 17:03:56
Дата пометки                             : UTC 2014-05-24 21:48:15

Отчёт auCDtect Task manager:

Код:

-----------------------

DON'T MODIFY THIS FILE

-----------------------

PERFORMER: auCDtect Task Manager, ver. 1.6.0 RC1 build 1.6.0.1
Copyright (c) 2008-2010 y-soft. All rights reserved
http://y-soft.org

ANALYZER: auCDtect: CD records authenticity detector, version 0.8.2
Copyright (c) 2004 Oleg Berngardt. All rights reserved.
Copyright (c) 2004 Alexander Djourik. All rights reserved.

FILE: 14 Мечты.m4a
  Size: 32275462 Hash: 21EE8FFDAF75538F9B73255F1EDD0DE9 Accuracy: -m8
  Conclusion: CDDA 100%
  Signature: DA517D81B628650559DB08AA0758C30D56C00DBC
FILE: 13 Встань, страх преодолей.m4a
  Size: 35908557 Hash: E4BA2810629425D76127219A1DD36D9F Accuracy: -m8
  Conclusion: CDDA 100%
  Signature: 57C11D364040A0E51C3D82883C5BC4C5F938A915
FILE: 12 Воля и разум.m4a
  Size: 42614776 Hash: C2E54222DCFC1BAECAD7393EE174D783 Accuracy: -m8
  Conclusion: CDDA 99%
  Signature: 1418A02F933C01BB98A7BE8FCF47A86CBCA52873
FILE: 11 Возьми моё сердце.m4a
  Size: 29020027 Hash: 85E817502E22661D7B3C32B43E9B4F49 Accuracy: -m8
  Conclusion: CDDA 100%
  Signature: AF66196E24FB905AA32F38E97D3081666130AB20
FILE: 10 Потерянный рай.m4a
  Size: 40124301 Hash: 538908758A61F886960EC177D7E6CBFF Accuracy: -m8
  Conclusion: CDDA 100%
  Signature: ACF7A3FDBE066A10F94BB94DE71203663222640E
FILE: 09 Тореро.m4a
  Size: 42032468 Hash: B4C04D5D10C286B4D1D51D99D9A50736 Accuracy: -m8
  Conclusion: CDDA 100%
  Signature: B9D942A32D2C8A85F4940BD6A66742D4200E6563
FILE: 08 Закат.m4a
  Size: 24038001 Hash: 82B8D402F8185691D30FF623CD9FBA3F Accuracy: -m8
  Conclusion: CDDA 100%
  Signature: 8E18CA33AC16114DA858D25AEDFE180DBD85AEE4
FILE: 07 Следуй за мной.m4a
  Size: 33752069 Hash: FFB80C11BB1C9E15FDF6DF31EA88C58D Accuracy: -m8
  Conclusion: CDDA 100%
  Signature: 614B2B2E8FBB0AB018A38F43EC91B475FBC607BC
FILE: 06 Я свободен.m4a
  Size: 51204899 Hash: BD10CD1863CA3D118AC78A3F5697440B Accuracy: -m8
  Conclusion: CDDA 100%
  Signature: B475F07C9840CD026AD31A0ACADE4BE74DC08D59
FILE: 05 Castlevania.m4a
  Size: 47231543 Hash: A1F25F8970A60C7D267BCC5188DC6F9E Accuracy: -m8
  Conclusion: CDDA 100%
  Signature: D46E9C95BC28160BDCAE5D28BBE0873987B68399
FILE: 04 Дьявольский зной.m4a
  Size: 40547008 Hash: 06C057FAD7F67F00642B78135936F54A Accuracy: -m8
  Conclusion: CDDA 100%
  Signature: 5ADA3342114DAD22AEA0E7C4FE11514FD6CA19EF
FILE: 03 Грязь.m4a
  Size: 34713175 Hash: 845C2A02E7B77F28913D1AA910492654 Accuracy: -m8
  Conclusion: CDDA 100%
  Signature: E0916B0FFB471F64D39C2B667997F15794D1EA9F
FILE: 02 Я не сошел с ума.m4a
  Size: 43464821 Hash: 9278200A7CF4D33D5B389CC30F52D398 Accuracy: -m8
  Conclusion: CDDA 100%
  Signature: 9C599808D284BD04CA1B426B65D1A0055D36D6FD
FILE: 01 Путь наверх.m4a
  Size: 59721450 Hash: 7E55CE266AB05F61D23CB523136148B7 Accuracy: -m8
  Conclusion: CDDA 100%
  Signature: A459D5D8F5A1552E48AF475C20336C70304F527E
Детали торрента:
Название:Кипелов - Best (Single) (2003) [ALAC|Tracks]<Heavy Metal>
Дата добавления:25 Май 2014 03:38:54
Размер:531 MB
Раздают:1
Качают:0
Форум:Музыка Lossless (ALAC)

All rights reserved © 2015-2018