TORRENTS43.COM

Скачать Большой куш / Snatch (2000) BDRip [1080p]


Большой куш / Snatch (2000) BDRip
Год выпуска: 2000
Жанр: Комедия, Криминал
Производство: Великобритания, США / Columbia Pictures Corporation, SKA Films

Описание фильма:
Четырехпалый Френки должен был переправить краденый алмаз из Англии в США своему боссу Эви. Но вместо этого герой попадает в эпицентр больших неприятностей. Сделав ставку на подпольном боксерском поединке, Френки попадает в круговорот весьма нежелательных событий.

Вокруг героя и его груза разворачивается сложная интрига с участием множества колоритных персонажей лондонского дна — русского гангстера, троих незадачливых грабителей, хитрого боксера и угрюмого громилы грозного мафиози. Каждый норовит в одиночку сорвать Большой Куш.

Режиссер: Гай Ричи
Актеры: Джейсон Стэйтем, Брэд Питт, Бенисио Дель Торо, Стивен Грэм, Алан Форд, Деннис Фарина, Раде Шербеджия, Винни Джонс, Джейсон Флеминг, Майк Рейд, Робби Ги, Ленни Джеймс, Юэн Бремнер, Эд, Уильям Бек, Энди Бекуив, Джейсон Бакхэм, Мики Кентвелл, Никки Коллинз

Продолжительность: 01:42:47
Качество видео: BDRip
Перевод: Многоголосый закадровый, Двуголосый закадровый, Одноголосый закадровый
Язык субтитров: Русский, Английский
Вид субтитров: Вшитые отключаемые



Видеокодек: MPEG-4 AVC/H.264
Битрейт видео: ~12,0 Mbps
Размер кадра: 1920 x 1040
Аудио 01: Русский, AC3 5.1, 448 kbps, 48 kHz (MVO, Позитив)
Аудио 02: Русский, AC3 5.1, 448 kbps, 48 kHz (MVO, ОРТ)
Аудио 03: Русский, DTS 5.1, 1509 kbps, 48 kHz (DVO, П.Гланц и И.Королева)
Аудио 04: Русский, DTS 5.1, 1509 kbps, 48 kHz (AVO, С.Рябов)
Аудио 05: Русский, DTS 5.1, 1509 kbps, 48 kHz (AVO, Д.Пучков (Гоблин, 2001г.)
Аудио 06: Русский, DTS 5.1, 1509 kbps, 48 kHz (AVO, Д.Пучков (Гоблин, 2004г.)
Аудио 07: Русский, DTS 5.1, 1509 kbps, 48 kHz (AVO, Ю.Жиов)
Аудио 08: Русский, DTS 5.1, 1509 kbps, 48 kHz (AVO, А.Гаврилов)
Аудио 09: Украинский, AC3 5.1, 384 kbps, 48 kHz (MVO, К1)
Аудио 10: Английский, DTS 5.1, 1509 kbps, 48 kHz (Оригинал)
Аудио 11: Русский, AC3 2.0, 192 kbps, 48 kHz (VO, Комментарий, Позитив)
Аудио 12: Английский, AC3 2.0, 192 kbps, 48 kHz (Комментарий)
Сэмпл: Ссылка

Знаете ли вы, что...

• За фильм слово «[censored]» произносится 153 раза.
• Для того, чтобы поддерживать порядок на съёмочной площадке, Гай Ричи ввел своеобразную систему штрафов, среди которых были штрафы за звонящие мобильные телефоны, опоздание, сон в рабочее время, за разговоры, за выражение недовольства…
• Брэд Питт — большой поклонник фильма «Карты, деньги и два ствола» (1998). Встретившись с Гаем Ричи, Брэд попросил его о роли в следующей картине. Питт получил роль Микки-цыгана после того, как выяснилось, что он не может достоверно сымитировать лондонский акцент.
• Эд, сыгравший Тайрона, пришел на съёмочную площадку фильма, ища работу в качестве охранника. После того, как его увидел Гай Ричи, он сразу же предложил ему роль Тайрона.
• В одной из сцен Винни Джонс бьет человека по голове дверцей своей машины. То же самое он делал в фильме «Карты, деньги и два ствола» (1998), режиссером которого был Гай Ричи.
• В одной из сцен Борис-бритва достает из-под пиджака мясницкий нож. То же самое делал Мыло в фильме «Карты, деньги и два ствола» (1998).
• После выхода картины «Карты, деньги и два ствола» (1998) многие критики заявили, что из-за ярко выраженного лондонского акцента очень сложно разобрать, о чём говорят персонажи. В «Большом куше» Гай Ричи нарочно сделал речь Микки крайне неразборчивой, тем самым, подшутив над многочисленными критиками: то, что говорит Микки, не могут понять ни другие герои фильма, ни зрители, ни критики.
• По слухам, Гай Ричи заплатил $1 млн. за использование песни Мадонны «Lucky Star».
• Практически все идиотские ситуации, в которые попадают Сол, Винсент и Тайрон, основаны на реальных событиях: Гай Ричи позаимствовал их из документальных телепередач о самых нелепых преступлениях.
• Гая Ричи можно заметить в баре, когда Даг-голова отказывается покупать драгоценные камни: человек, читающий газету в углу бара, — Гай Ричи.
• Тим Морис-Джоунс (оператор) сыграл человека, которого Фрэнки — четыре пальца (Бенисио Дель Торо) несколько раз бьет по голове в сцене ограбления. В фильме «Карты, деньги и два ствола» (1998), где Тим также был оператором, он сыграл человека, которого в самом начале картины топит Барри-баптист (Лени МакЛин).
• В предыдущем фильме Гая Ричи, «Карты, деньги и два ствола» (1998), есть сцена разговора между Гарри, Барри и Крисом. Барри говорит: «Нет, Гарри, ты не можешь», после чего, данную фразу повторяет Крис, а потом вместе Крис и Барри. Подобная шутка содержится и в «Большом куше», когда Алекс и Сюзи сначала по отдельности, а потом вместе повторяют фразу «да, папа, ты сказал нам».
• В США название фильма хотели изменить на «Snatched» или «Snatch`d».
• На протяжении начальных титров грабители обсуждают Деву Марию (Virgin Mary). Данный эпизод очень похож на начальную сцену из фильма «Бешенные псы» (1991), где речь шла о песне Мадонны «Как девственница» (Like a Virgin).
• За время телефонного разговора между Фрэнки — четыре пальца и кузеном Ави, Фрэнки переодевается в четыре разных костюма.
• Мулли говорит Тони, что букмекера ограбили Винни и Сол, у которых есть ломбард на Смит Стрит (Smith Street). Данная улица находится в Челси, роскошном районе Лондона.
• Из-за небольшого бюджета, продюсеры не могли позволить себе набрать необходимую массовку для сцены боксерского поединка. Каждый раз когда камера меняет угол, массовке приходилось перемещаться, для того чтобы создать эффект огромной толпы, присутствующей на матче.
• Название фильма упоминается лишь однажды, когда Винни, протягивая собаке пискливую игрушку, говорит: «Не хватай!» (Don`t Snatch!).
• Когда снимали сцену, в которой Винни и Сол сидят в машине около букмекерской конторы Кирпича, и к ним подходит Тони — пуля в зубах, Винни Джонс отсутствовал на съёмочной площадке, т. к. в это самое время он сидел в полицейском участке из-за драки, устроенной им в ночь перед съёмками.
• Дословный перевод оригинального названия — «Грабёж».
• Британская версия фильма длится 104 минуты, а американская — 102 минуты.
• Когда Микки говорит Турецкому о новом домике на колесах для его матери, он особенно подчеркивает, что трейлер должен быть нежно-голубого цвета. В «Психо» (1960) мы узнаем, что Норман Бейтс помогал выбирать платье такого же цвета для своей мертвой матери. Микки, как и Норман, также, хотя и косвенно, ответственен за смерть своей матери.

Ошибки в фильме

• В начале фильма речь идет о бриллианте в 86 карат, однако, в концовке — о бриллианте в 84 карата.

MediaInfo:

Общее
Уникальный идентификатор : 195962636584014322975132376864187198861 (0x936D07EE299F518080FFCBD61777AD8D)
Полное имя : D:\Films\Snatch.2000.BDRip.1080p.mkv
Формат : Matroska
Версия формата : Version 2
Размер файла : 17,4 Гбайт
Продолжительность : 1 ч. 42 м.
Общий поток : 24,2 Мбит/сек
Дата кодирования : UTC 2014-06-02 11:12:08
Программа кодирования : mkvmerge v5.2.0 ('I can't explain') built on Dec 18 2011 18:12:03
Библиотека кодирования : libebml v1.2.3 + libmatroska v1.3.0

Видео
Идентификатор : 1
Формат : AVC
Формат/Информация : Advanced Video Codec
Профиль формата : High@L4.1
Параметр CABAC формата : Да
Параметр ReFrames формата : 4 кадра
Идентификатор кодека : V_MPEG4/ISO/AVC
Продолжительность : 1 ч. 42 м.
Битрейт : 12,0 Мбит/сек
Ширина : 1920 пикселей
Высота : 1040 пикселей
Соотношение сторон : 1,85:1
Режим частоты кадров : Постоянный
Частота кадров : 23,976 кадра/сек
Цветовое пространство : YUV
Субдискретизация насыщенности : 4:2:0
Битовая глубина : 8 бит
Тип развёртки : Прогрессивная
Бит/(Пиксели*Кадры) : 0.251
Размер потока : 8,27 Гбайт (48%)
Библиотека кодирования : x264 core 138 r2358 9e941d1
Настройки программы : cabac=1 / ref=4 / deblock=1:-3:-3 / analyse=0x3:0x113 / me=umh / subme=11 / psy=1 / psy_rd=1.00:0.00 / mixed_ref=1 / me_range=32 / chroma_me=1 / trellis=2 / 8x8dct=1 / cqm=0 / deadzone=21,11 / fast_pskip=1 / chroma_qp_offset=-2 / threads=6 / lookahead_threads=1 / sliced_threads=0 / nr=0 / decimate=1 / interlaced=0 / bluray_compat=0 / constrained_intra=0 / bframes=5 / b_pyramid=2 / b_adapt=1 / b_bias=0 / direct=2 / weightb=1 / open_gop=0 / weightp=2 / keyint=240 / keyint_min=23 / scenecut=40 / intra_refresh=0 / rc_lookahead=40 / rc=2pass / mbtree=1 / bitrate=12000 / ratetol=1.0 / qcomp=0.60 / qpmin=0 / qpmax=69 / qpstep=4 / cplxblur=20.0 / qblur=0.5 / vbv_maxrate=62500 / vbv_bufsize=78125 / nal_hrd=none / ip_ratio=1.40 / aq=1:1.00 / zones=143223,147839,q=40
Язык : English
Default : Да
Forced : Нет

Аудио #1
Идентификатор : 2
Формат : AC-3
Формат/Информация : Audio Coding 3
Расширение режима : CM (complete main)
Параметр Endianness формата : Big
Идентификатор кодека : A_AC3
Продолжительность : 1 ч. 42 м.
Вид битрейта : Постоянный
Битрейт : 448 Кбит/сек
Каналы : 6 каналов
Расположение каналов : Front: L C R, Side: L R, LFE
Частота : 48,0 КГц
Битовая глубина : 16 бит
Метод сжатия : С потерями
Размер потока : 329 Мбайт (2%)
Заголовок : MVO Позитив
Язык : Russian
Default : Да
Forced : Нет

Аудио #2
Идентификатор : 3
Формат : AC-3
Формат/Информация : Audio Coding 3
Расширение режима : CM (complete main)
Параметр Endianness формата : Big
Идентификатор кодека : A_AC3
Продолжительность : 1 ч. 42 м.
Вид битрейта : Постоянный
Битрейт : 448 Кбит/сек
Каналы : 6 каналов
Расположение каналов : Front: L C R, Side: L R, LFE
Частота : 48,0 КГц
Битовая глубина : 16 бит
Метод сжатия : С потерями
Размер потока : 329 Мбайт (2%)
Заголовок : MVO OPT
Язык : Russian
Default : Нет
Forced : Нет

Аудио #3
Идентификатор : 4
Формат : DTS
Формат/Информация : Digital Theater Systems
Режим : 16
Параметр Endianness формата : Big
Идентификатор кодека : A_DTS
Продолжительность : 1 ч. 42 м.
Вид битрейта : Постоянный
Битрейт : 1509 Кбит/сек
Каналы : 6 каналов
Расположение каналов : Front: L C R, Side: L R, LFE
Частота : 48,0 КГц
Битовая глубина : 24 бит
Метод сжатия : С потерями
Размер потока : 1,08 Гбайт (6%)
Заголовок : DVO, П.Гланц и И.Королева
Язык : Russian
Default : Нет
Forced : Нет

Аудио #4
Идентификатор : 5
Формат : DTS
Формат/Информация : Digital Theater Systems
Режим : 16
Параметр Endianness формата : Big
Идентификатор кодека : A_DTS
Продолжительность : 1 ч. 42 м.
Вид битрейта : Постоянный
Битрейт : 1509 Кбит/сек
Каналы : 6 каналов
Расположение каналов : Front: L C R, Side: L R, LFE
Частота : 48,0 КГц
Битовая глубина : 24 бит
Метод сжатия : С потерями
Размер потока : 1,08 Гбайт (6%)
Заголовок : AVO Рябов
Язык : Russian
Default : Нет
Forced : Нет

Аудио #5
Идентификатор : 6
Формат : DTS
Формат/Информация : Digital Theater Systems
Режим : 16
Параметр Endianness формата : Big
Идентификатор кодека : A_DTS
Продолжительность : 1 ч. 42 м.
Вид битрейта : Постоянный
Битрейт : 1509 Кбит/сек
Каналы : 6 каналов
Расположение каналов : Front: L C R, Side: L R, LFE
Частота : 48,0 КГц
Битовая глубина : 24 бит
Метод сжатия : С потерями
Размер потока : 1,08 Гбайт (6%)
Заголовок : AVO Goblin 2001
Язык : Russian
Default : Нет
Forced : Нет

Аудио #6
Идентификатор : 7
Формат : DTS
Формат/Информация : Digital Theater Systems
Режим : 16
Параметр Endianness формата : Big
Идентификатор кодека : A_DTS
Продолжительность : 1 ч. 42 м.
Вид битрейта : Постоянный
Битрейт : 1509 Кбит/сек
Каналы : 6 каналов
Расположение каналов : Front: L C R, Side: L R, LFE
Частота : 48,0 КГц
Битовая глубина : 24 бит
Метод сжатия : С потерями
Размер потока : 1,08 Гбайт (6%)
Заголовок : AVO Goblin 2004
Язык : Russian
Default : Нет
Forced : Нет

Аудио #7
Идентификатор : 8
Формат : DTS
Формат/Информация : Digital Theater Systems
Режим : 16
Параметр Endianness формата : Big
Идентификатор кодека : A_DTS
Продолжительность : 1 ч. 42 м.
Вид битрейта : Постоянный
Битрейт : 1509 Кбит/сек
Каналы : 6 каналов
Расположение каналов : Front: L C R, Side: L R, LFE
Частота : 48,0 КГц
Битовая глубина : 24 бит
Метод сжатия : С потерями
Размер потока : 1,08 Гбайт (6%)
Заголовок : AVO Ю.Живов
Язык : Russian
Default : Нет
Forced : Нет

Аудио #8
Идентификатор : 9
Формат : DTS
Формат/Информация : Digital Theater Systems
Режим : 16
Параметр Endianness формата : Big
Идентификатор кодека : A_DTS
Продолжительность : 1 ч. 42 м.
Вид битрейта : Постоянный
Битрейт : 1509 Кбит/сек
Каналы : 6 каналов
Расположение каналов : Front: L C R, Side: L R, LFE
Частота : 48,0 КГц
Битовая глубина : 24 бит
Метод сжатия : С потерями
Размер потока : 1,08 Гбайт (6%)
Заголовок : AVO А.Гаврилов
Язык : Russian
Default : Нет
Forced : Нет

Аудио #9
Идентификатор : 10
Формат : AC-3
Формат/Информация : Audio Coding 3
Расширение режима : CM (complete main)
Параметр Endianness формата : Big
Идентификатор кодека : A_AC3
Продолжительность : 1 ч. 42 м.
Вид битрейта : Постоянный
Битрейт : 384 Кбит/сек
Каналы : 6 каналов
Расположение каналов : Front: L C R, Side: L R, LFE
Частота : 48,0 КГц
Битовая глубина : 16 бит
Метод сжатия : С потерями
Размер потока : 282 Мбайт (2%)
Заголовок : MVO
Язык : Ukrainian
Default : Нет
Forced : Нет

Аудио #10
Идентификатор : 11
Формат : DTS
Формат/Информация : Digital Theater Systems
Режим : 16
Параметр Endianness формата : Big
Идентификатор кодека : A_DTS
Продолжительность : 1 ч. 42 м.
Вид битрейта : Постоянный
Битрейт : 1509 Кбит/сек
Каналы : 6 каналов
Расположение каналов : Front: L C R, Side: L R, LFE
Частота : 48,0 КГц
Битовая глубина : 24 бит
Метод сжатия : С потерями
Размер потока : 1,08 Гбайт (6%)
Заголовок : Original
Язык : English
Default : Нет
Forced : Нет

Аудио #11
Идентификатор : 12
Формат : AC-3
Формат/Информация : Audio Coding 3
Расширение режима : CM (complete main)
Параметр Endianness формата : Big
Идентификатор кодека : A_AC3
Продолжительность : 1 ч. 42 м.
Вид битрейта : Постоянный
Битрейт : 192 Кбит/сек
Каналы : 2 канала
Расположение каналов : Front: L R
Частота : 48,0 КГц
Битовая глубина : 16 бит
Метод сжатия : С потерями
Размер потока : 141 Мбайт (1%)
Заголовок : Commentary Позитив
Язык : Russian
Default : Нет
Forced : Нет

Аудио #12
Идентификатор : 13
Формат : AC-3
Формат/Информация : Audio Coding 3
Расширение режима : CM (complete main)
Параметр Endianness формата : Big
Идентификатор кодека : A_AC3
Продолжительность : 1 ч. 42 м.
Вид битрейта : Постоянный
Битрейт : 192 Кбит/сек
Каналы : 2 канала
Расположение каналов : Front: L R
Частота : 48,0 КГц
Битовая глубина : 16 бит
Метод сжатия : С потерями
Размер потока : 141 Мбайт (1%)
Заголовок : Commentary
Язык : English
Default : Нет
Forced : Нет

Текст #1
Идентификатор : 14
Формат : UTF-8
Идентификатор кодека : S_TEXT/UTF8
Идентификатор кодека/Информация : UTF-8 Plain Text
Заголовок : Forced
Язык : Russian
Default : Да
Forced : Нет

Текст #2
Идентификатор : 15
Формат : UTF-8
Идентификатор кодека : S_TEXT/UTF8
Идентификатор кодека/Информация : UTF-8 Plain Text
Заголовок : Full
Язык : Russian
Default : Нет
Forced : Нет

Текст #3
Идентификатор : 16
Формат : UTF-8
Идентификатор кодека : S_TEXT/UTF8
Идентификатор кодека/Информация : UTF-8 Plain Text
Заголовок : Goblin
Язык : Russian
Default : Нет
Forced : Нет

Текст #4
Идентификатор : 17
Формат : UTF-8
Идентификатор кодека : S_TEXT/UTF8
Идентификатор кодека/Информация : UTF-8 Plain Text
Заголовок : Forced
Язык : English
Default : Нет
Forced : Нет

Текст #5
Идентификатор : 18
Формат : UTF-8
Идентификатор кодека : S_TEXT/UTF8
Идентификатор кодека/Информация : UTF-8 Plain Text
Заголовок : Full
Язык : English
Default : Нет
Forced : Нет

Меню
00:00:00.000 : en:Start; Diamond Snatch
00:06:58.293 : en:Turkish & Tommy; Brick Top
00:11:53.546 : en:Boris & His Brother; Avi; Doug the Head
00:16:31.741 : en:Burying a Caravan; Gypsy Bare-Knuckle Champ
00:22:47.908 : en:Sol; Tyrone & His Getaway Car
00:30:03.218 : en:Replacement Fighter; A Dive in the Fourth
00:36:27.936 : en:All Bets Are Off; One-Punch Mickey
00:41:39.414 : en:A Problem
00:48:16.393 : en:Mickey's Offer
00:53:13.607 : en:Not a Bad Moment?
00:59:06.293 : en:Bullet-Tooth Tony; Brick Top's Persuasion
01:07:47.105 : en:A Hard Man to Track Down; All Roads Lead to Boris
01:13:24.525 : en:Desert Eagle vs. Replica; Russian Standoff
01:19:09.536 : en:Predictability of Stupidity; “Look in the Dog.”
01:28:12.579 : en:“Do Not Knock Him Out.”
01:33:58.341 : en:Action & Reaction

Скриншоты:




Смотреть Online

http://moonwalk.cc/video/b1de5f03883ca5ab/iframe
Детали торрента:
Название:Большой куш / Snatch (2000) BDRip [1080p]
Дата добавления:02 Июн 2014 06:03:42
Размер:17,4 GB
Раздают:14
Качают:0
Форум:Зарубежные Фильмы (HD, UHD-LQ)

All rights reserved © 2015-2018