TORRENTS43.COM

Скачать Анатолий Пиксаев | Аэродизайн - Делаем фигуры из воздушных шаров (2012 - 2014) DVDRip


Анатолий Пиксаев | Аэродизайн - Делаем фигуры из воздушных шаров (2012 - 2014) DVDRip
Автор (режиссер): Анатолий Пиксаев
Жанр: Обучающие видеуроки
Продолжительность: 11:24:46
Качество видео: DVDRip
Видеокодек: MPEG4 (AVC)
Битрейт видео: ~1 810 Kbps
Размер кадра: 1280х720
Аудиокодек: AAC
Битрейт аудио: 192 Kbps, 2 ch

Описание:
Если Вы ищете какое-нибудь новое и необычное занятие, которые бы с легкостью завлекло бы как взрослых, так и детей, то, вполне возможно, что аэродизайн – это то, что Вам надо! Благодаря данному видеокурсу Вы узнаете и научитесь, как делать простые фигуры (модели) разлиных зверей, насекомых, цветы и т.д. из воздушных шаров для моделирования, а так же узнаете некоторые технические хитрости, что позволит Вам самим создавать шедевры из шаров и оформлять интерьеры для праздничных мероприятий собственными руками.

Содержание:

Оборудование и Технические вопросы
• Виды шаров
• Делаем стойку для шаров из труб
• Замена шаров в готовой фигуре
• Как загнуть шар для моделирования
• Как закрутить ШДМ в спираль
• Как и где заказывать шары и оборудование
• Как организовать сброс-запуск воздушных шаров
• Как пользоваться компрессором для ШДМ
• Как работать с Хайфлоат (hi-float)
• Как сделать ширму для центральной композиции
• Монтаж гирлянды из шаров на леску и скотч
• Обработка стоек для шаров латексом
• Светящиеся шары
• Стойки для шаров
• Транспортировка гелиевых шаров

Фигуры из шаров для моделирования (ШДМ)
• Аист
• Ангел
• Бабочка
• Божья коровка
• Букет цветов
• Ваза под цветы
• Валентинка (сердце)
• Гирлянда
• Жираф
• Завитки из шаров для моделирования
• Заяц
• Змея (удав)
• Золотой ключик
• Как сделать Шар в шаре
• Как сделать Шар сюрприз
• Как упаковать подарок в шар
• Коляска с малышом из шаров
• Корова
• Косичка из шаров для моделирования
• Кошка
• Кролик
• Лебедь из шаров (малый)
• Летучая мышь
• Львёнок
• Малыш из шаров на игровой площадке
• Медвежонок
• Муравей
• Новогодние фигуры из шаров
• Новогодняя ёлочка
• Оригинальный столбик из шаров
• Очки
• Паук
• Подарок из шаров
• Пчела
• Пятилепестковый цветок
• Соска
• Стрекоза
• Трёхлепестковый цветок
• Цветок - Незабудка.
• Цветок - Тюльпан
• Цепь из шаров для моделирования
• Черепаха

MediaInfo:

General
Complete name : \Аис.mp4
Format : MPEG-4
Format profile : Base Media / Version 2
Codec ID : mp42
File size : 150 MiB
Duration : 10mn 29s
Overall bit rate : 2 004 Kbps
Encoded date : UTC 2013-11-03 18:22:53
Tagged date : UTC 2013-11-03 18:22:53
gsst : 0
gstd : 629561
gssd : B4A7DD8A7MH1401957475830154
gshh : r7---sn-cg07lued.googlevideo.com

Video
ID : 1
Format : AVC
Format/Info : Advanced Video Codec
Format profile : High@L3.1
Format settings, CABAC : Yes
Format settings, ReFrames : 1 frame
Codec ID : avc1
Codec ID/Info : Advanced Video Coding
Duration : 10mn 29s
Bit rate mode : Variable
Bit rate : 1 810 Kbps
Maximum bit rate : 2 711 Kbps
Width : 1 280 pixels
Height : 720 pixels
Display aspect ratio : 16:9
Frame rate mode : Constant
Frame rate : 29.970 fps
Color space : YUV
Chroma subsampling : 4:2:0
Bit depth : 8 bits
Scan type : Progressive
Bits/(Pixel*Frame) : 0.066
Stream size : 136 MiB (90%)
Tagged date : UTC 2013-11-03 18:23:07

Audio
ID : 2
Format : AAC
Format/Info : Advanced Audio Codec
Format profile : LC
Codec ID : 40
Duration : 10mn 29s
Bit rate mode : Variable
Bit rate : 192 Kbps
Maximum bit rate : 203 Kbps
Channel(s) : 2 channels
Channel positions : Front: L R
Sampling rate : 44.1 KHz
Compression mode : Lossy
Stream size : 14.4 MiB (10%)
Title : IsoMedia File Produced by Google, 5-11-2011
Encoded date : UTC 2013-11-03 18:23:02
Tagged date : UTC 2013-11-03 18:23:07
Скриншоты:


Детали торрента:
Название:Анатолий Пиксаев | Аэродизайн - Делаем фигуры из воздушных шаров (2012 - 2014) DVDRip
Дата добавления:21 Июн 2014 17:43:56
Размер:7,88 GB
Раздают:1
Качают:0
Форум:Обучающее Видео для родителей

All rights reserved © 2015-2018