TORRENTS43.COM

Скачать Формула 1. Гран-При Великобритании. Гонка (2014) HDTVRip [H.264]


Формула 1. Гран-При Великобритании. Гонка (2014) HDTVRip [H.264]
Название: Формула 1. Гран-При Великобритании. Гонка
Режиссер / Телекомпания: Россия,
Год выпуска: 2014
Жанр: Спорт, авто
Комментатор: Алексей Попов, Наталья Фабричнова

Описание:
Девятый этап чемпионата "Формулы-1" стартует в пятницу на одной из самых старых трасс сезона - британском автодроме "Сильверстоун". Этот Гран-при является самым домашним для почти всех участников чемпионата: базы восьми из одиннадцати команд, за исключением "Феррари", "Торо Россо" и "Заубера", располагаются именно в Великобритании.

Лидером чемпионата по-прежнему является немец Нико Росберг из "Мерседеса" (165 очков), который опережает своего напарника по команде британца Льюиса Хэмилтона на 29 очков. На третье место идет австралиец Дэниел Риккьярдо из "Ред Булл" (83), который первым смог прервать гегемонию "Мерседеса" в текущем сезоне, выиграв Гран-при Канады. В Кубке конструкторов лидирует "Мерседес" (301 очко), далее идет "Ред Булл" (143), а замыкает тройку "Феррари" (98).(С)

Продолжительность: 03:13:16

Видеокодек: MPEG-4 AVC/H.264
Битрейт видео: 1900 kb/s
Размер кадра: 704х400
Качество видео: HDTVRip
Аудиокодек: AC3, 2 ch
Битрейт аудио: 192 kb/s

MI

Код:
Общее
Полное имя                               : D:\Раздачи\Ф-1. Великобритания. Гонка. Багга. 06.07.2014.mkv
Формат                                   : Matroska
Версия формата                           : Version 4 / Version 2
Размер файла                             : 2,79 Гбайт
Продолжительность                        : 3 ч. 13 м.
Общий поток                              : 2041 Кбит/сек
Библиотека кодирования                   : MPlayer

Видео
Идентификатор                            : 1
Формат                                   : AVC
Формат/Информация                        : Advanced Video Codec
Профиль формата                          : High@L4.1
Параметр CABAC формата                   : Да
Параметр ReFrames формата                : 4 кадра
Идентификатор кодека                     : V_MPEG4/ISO/AVC
Продолжительность                        : 3 ч. 13 м.
Битрейт                                  : 1900 Кбит/сек
Ширина                                   : 704 пикселя
Высота                                   : 400 пикселей
Соотношение сторон                       : 16:9
Частота кадров                           : 25,000 кадров/сек
Цветовое пространство                    : YUV
Субдискретизация насыщенности            : 4:2:0
Битовая глубина                          : 8 бит
Тип развёртки                            : Прогрессивная
Метод сжатия                             : С потерями
Бит/(Пиксели*Кадры)                      : 0.270
Размер потока                            : 2,03 Гбайт (93%)
Библиотека кодирования                   : XviD 64

Аудио
Идентификатор                            : 2
Формат                                   : AC-3
Формат/Информация                        : Audio Coding 3
Расширение режима                        : CM (complete main)
Параметр Endianness формата              : Big
Идентификатор кодека                     : A_AC3
Продолжительность                        : 3 ч. 13 м.
Вид битрейта                             : Постоянный
Битрейт                                  : 192 Кбит/сек
Каналы                                   : 2 канала
Расположение каналов                     : Front: L R
Частота                                  : 48,0 КГц
Битовая глубина                          : 16 бит
Метод сжатия                             : С потерями
Размер потока                            : 89,3 Мбайт (5%)
Язык                                     : Russian
Default                                  : Да
Forced                                   : Нет
Скриншоты:


Формула 1 на Torrents43.com
Детали торрента:
Название:Формула 1. Гран-При Великобритании. Гонка (2014) HDTVRip [H.264]
Дата добавления:06 Июл 2014 18:25:03
Размер:2,79 GB
Раздают:
Качают:0
Форум:Формула 1

All rights reserved © 2015-2018