TORRENTS43.COM

Скачать Ты - воплощение порока / Ты - Отстой / You're the Worst (2014) WEB-DL [H.264/720p-LQ] (Сезон 1, Серии 1-10 из 10) NewStudio


Ты - воплощение порока / Ты - Отстой / You're the Worst
Год выпуска: 2014
Жанр: Мелодрама, Комедия

Перевод: Многоголосый закадровый, профессиональный
Озвучка / Автор перевода: NewStudio
Релиз группа: NewStudio


Дата мировой премьеры: 17 июля 2014

Режиссер: Алекс Хардкасл, Джордан Вот-Робертс
Актеры: Крис Гир, Ая Кэш, Десмин Боргес, Кетер Донохью, Стивен Шнайдер, Джанет Вэрни, Брэндон Смит

Описание фильма:
В центре событий этого романтического комедийного сериала «Ты - воплощение порока» – история о парне и девушке, влюбленных друг в друга.

Они очень непохожи друг на друга, и, на первый взгляд, кажется, совершенно не подходят друг другу, так как никак не могут найти общий язык.

Продолжительность: ~00:27:00 серия
Качество видео: WEB-DL 720p
Сэмпл: Скачать

Формат: MKV
Видео кодек: AVC (High@L3.1)
Аудио кодек: AC-3
Видео: AVC, 1280x720 (16:9), 23.976 fps, 3 981 Kbps (0.180 bit/pixel)
Аудио 1: AC-3, 48.0 KHz, 6 ch, 384 Kbps, CBR, 16 бит [Русский]
Аудио 2: AC-3, 48.0 KHz, 6 ch, 384 Kbps, CBR, 16 бит [Английский]




Внимание! Присутствует ненормативная лексика! Возрастное ограничение: 18+

Список серий

01. Pilot / Пилот
02. Insouciance / Беззаботность
03. Keys Open Doors / Ключи, которые открывают двери
04. What Normal People Do /То, что делают нормальные люди
05. Sunday Funday / День Веселья
06. PTSD / ПТСР
07. Equally Dead Inside / Одинаково мертвы душой
08. Finish Your Milk / Допивай своё молоко
09. Constant Horror and Bone-Deep Dissatisfaction / Всепоглощающая досада
10. Fists and Feet and Stuff / Пинки и кулаки

Тех. данные (MI)

Общее
Уникальный идентификатор : 216680603060055952591868174955534256399 (0xA3032A8AC7D8869588F0E541BD5E890F)
Полное имя : E:\Сериалы новые\You're.the.Worst\You're.the.Worst.s01e01.WEBDL.720p.NewStudio.TV.mkv
Формат : Matroska
Версия формата : Version 2
Размер файла : 948 Мбайт
Продолжительность : 27 м.
Общий поток : 4846 Кбит/сек
Дата кодирования : UTC 2014-07-28 14:51:19
Программа кодирования : mkvmerge v2.9.9 ('Tutu') built on Nov 25 2009 21:13:32
Библиотека кодирования : libebml v0.7.9 + libmatroska v0.8.1

Видео
Идентификатор : 1
Формат : AVC
Формат/Информация : Advanced Video Codec
Профиль формата : High@L3.1
Параметр CABAC формата : Нет
Параметр ReFrames формата : 2 кадра
Идентификатор кодека : V_MPEG4/ISO/AVC
Продолжительность : 27 м.
Битрейт : 3981 Кбит/сек
Ширина : 1280 пикселей
Высота : 720 пикселей
Соотношение сторон : 16:9
Режим частоты кадров : Постоянный
Частота кадров : 23,976 кадра/сек
Цветовое пространство : YUV
Субдискретизация насыщенности : 4:2:0
Битовая глубина : 8 бит
Тип развёртки : Прогрессивная
Бит/(Пиксели*Кадры) : 0.180
Размер потока : 779 Мбайт (82%)
Язык : English
Default : Нет
Forced : Нет
Основные цвета : BT.709
Характеристики трансфера : BT.709
Коэффициенты матрицы : BT.709

Аудио #1
Идентификатор : 2
Формат : AC-3
Формат/Информация : Audio Coding 3
Расширение режима : CM (complete main)
Параметр Endianness формата : Big
Идентификатор кодека : A_AC3
Продолжительность : 27 м.
Вид битрейта : Постоянный
Битрейт : 384 Кбит/сек
Каналы : 6 каналов
Расположение каналов : Front: L C R, Side: L R, LFE
Частота : 48,0 КГц
Битовая глубина : 16 бит
Метод сжатия : С потерями
Размер потока : 75,1 Мбайт (8%)
Язык : Russian
Default : Да
Forced : Да

Аудио #2
Идентификатор : 3
Формат : AC-3
Формат/Информация : Audio Coding 3
Расширение режима : CM (complete main)
Параметр Endianness формата : Big
Идентификатор кодека : A_AC3
Продолжительность : 27 м.
Вид битрейта : Постоянный
Битрейт : 384 Кбит/сек
Каналы : 6 каналов
Расположение каналов : Front: L C R, Side: L R, LFE
Частота : 48,0 КГц
Битовая глубина : 16 бит
Метод сжатия : С потерями
Размер потока : 75,1 Мбайт (8%)
Язык : English
Default : Нет
Forced : Нет

Текст
Идентификатор : 4
Формат : ASS
Идентификатор кодека : S_TEXT/ASS
Идентификатор кодека/Информация : Advanced Sub Station Alpha
Метод сжатия : Без потерь
Default : Да
Forced : Да
Все релизы "Ты - воплощение порока / Ты - Отстой / You're the Worst"
Детали торрента:
Название:Ты - воплощение порока / Ты - Отстой / You're the Worst (2014) WEB-DL [H.264/720p-LQ] (Сезон 1, Серии 1-10 из 10) NewStudio
Дата добавления:23 Сен 2014 22:14:09
Размер:8,08 GB
Раздают:1
Качают:0
Форум:Зарубежные сериалы

All rights reserved © 2015-2018