TORRENTS43.COM

Скачать Света и группа Амстердам - Света и группа Амстердам (2007) [AAC|318-371 кб/с]<Pop, Pop Rock>


Света и группа Амстердам - Света и группа Амстердам (2007)
Год: 2007
Жанр: Pop, Pop Rock
Лейбл: Гранд Рекордс Паблишинг
Каталог #: GRP CD-05
Продолжительность: 00:39:02

Кодек: AAC
Битрейт: 318-371 кб/с
Тип битрейта: VBR

Треклист:
01. Коктейль 'Депрессия' (3:15)
02. Амиго (3:59)
03. Сантиметр тела (3:36)
04. Вечером (3:29)
05. Вот и все (3:49)
06. Город счастья (Амстердам) (3:28)
07. Этой ночью (3:26)
08. Шоколадная любовь (2:55)
09. Мечтать не вредно (3:22)
10. Конфета (4:12)
11. Америка (3:30)

Отчёт MediaInfo

Код:

Общее
Полное имя                               : C:\Users\PASHA\Desktop\Света и группа Амстердам - Света и группа Амстердам (2007)\01. Коктейль 'Депрессия'.m4a
Формат                                   : MPEG-4
Профиль формата                          : Apple audio with iTunes info
Идентификатор кодека                     : M4A
Размер файла                             : 8,70 Мбайт
Продолжительность                        : 3 м. 15 с.
Режим общего битрейта                    : Переменный
Общий поток                              : 373 Кбит/сек
Альбом                                   : Света и группа Амстердам
Трек                                     : Коктейль 'Депрессия'
Трек/Положение                           : 1
Трек/Всего                               : 11
Исполнитель                              : Света и группа Амстердам
Жанр                                     : Pop
Дата записи                              : 2007
Дата кодирования                         : UTC 2014-08-16 14:23:12
Дата пометки                             : UTC 2014-08-16 14:23:18
Программа кодирования                    : qaac 2.19, CoreAudioToolbox 7.9.8.3, AAC-LC Encoder, TVBR q127, Quality 96
Примечание                               : ExactAudioCopy v0.99pb3. SiriusNightE for flacmusic.ru
DISCID                                   : AF0C880C

Аудио
Идентификатор                            : 1
Формат                                   : AAC
Формат/Информация                        : Advanced Audio Codec
Профиль формата                          : LC
Идентификатор кодека                     : 40
Продолжительность                        : 3 м. 15 с.
Вид битрейта                             : Переменный
Битрейт                                  : 371 Кбит/сек
Максимальный битрейт                     : 402 Кбит/сек
Каналы                                   : 2 канала
Расположение каналов                     : Front: L R
Частота                                  : 44,1 КГц
Метод сжатия                             : С потерями
Размер потока                            : 8,66 Мбайт (100%)
Дата кодирования                         : UTC 2014-08-16 14:23:12
Дата пометки                             : UTC 2014-08-16 14:23:18

Меню
00:00:00.047                             : Коктейль 'Депрессия'

Общее
Полное имя                               : C:\Users\PASHA\Desktop\Света и группа Амстердам - Света и группа Амстердам (2007)\02. Амиго.m4a
Формат                                   : MPEG-4
Профиль формата                          : Apple audio with iTunes info
Идентификатор кодека                     : M4A
Размер файла                             : 9,29 Мбайт
Продолжительность                        : 3 м. 58 с.
Режим общего битрейта                    : Переменный
Общий поток                              : 326 Кбит/сек
Альбом                                   : Света и группа Амстердам
Трек                                     : Амиго
Трек/Положение                           : 2
Трек/Всего                               : 11
Исполнитель                              : Света и группа Амстердам
Жанр                                     : Pop
Дата записи                              : 2007
Дата кодирования                         : UTC 2014-08-16 14:23:12
Дата пометки                             : UTC 2014-08-16 14:23:19
Программа кодирования                    : qaac 2.19, CoreAudioToolbox 7.9.8.3, AAC-LC Encoder, TVBR q127, Quality 96
Примечание                               : ExactAudioCopy v0.99pb3. SiriusNightE for flacmusic.ru
DISCID                                   : AF0C880C

Аудио
Идентификатор                            : 1
Формат                                   : AAC
Формат/Информация                        : Advanced Audio Codec
Профиль формата                          : LC
Идентификатор кодека                     : 40
Продолжительность                        : 3 м. 58 с.
Вид битрейта                             : Переменный
Битрейт                                  : 325 Кбит/сек
Максимальный битрейт                     : 386 Кбит/сек
Каналы                                   : 2 канала
Расположение каналов                     : Front: L R
Частота                                  : 44,1 КГц
Метод сжатия                             : С потерями
Размер потока                            : 9,24 Мбайт (100%)
Дата кодирования                         : UTC 2014-08-16 14:23:12
Дата пометки                             : UTC 2014-08-16 14:23:19

Меню
00:00:00.047                             : Амиго

Общее
Полное имя                               : C:\Users\PASHA\Desktop\Света и группа Амстердам - Света и группа Амстердам (2007)\03. Сантиметр тела.m4a
Формат                                   : MPEG-4
Профиль формата                          : Apple audio with iTunes info
Идентификатор кодека                     : M4A
Размер файла                             : 8,93 Мбайт
Продолжительность                        : 3 м. 35 с.
Режим общего битрейта                    : Переменный
Общий поток                              : 347 Кбит/сек
Альбом                                   : Света и группа Амстердам
Трек                                     : Сантиметр тела
Трек/Положение                           : 3
Трек/Всего                               : 11
Исполнитель                              : Света и группа Амстердам
Жанр                                     : Pop
Дата записи                              : 2007
Дата кодирования                         : UTC 2014-08-16 14:23:12
Дата пометки                             : UTC 2014-08-16 14:23:18
Программа кодирования                    : qaac 2.19, CoreAudioToolbox 7.9.8.3, AAC-LC Encoder, TVBR q127, Quality 96
Примечание                               : ExactAudioCopy v0.99pb3. SiriusNightE for flacmusic.ru
DISCID                                   : AF0C880C

Аудио
Идентификатор                            : 1
Формат                                   : AAC
Формат/Информация                        : Advanced Audio Codec
Профиль формата                          : LC
Идентификатор кодека                     : 40
Продолжительность                        : 3 м. 35 с.
Вид битрейта                             : Переменный
Битрейт                                  : 345 Кбит/сек
Максимальный битрейт                     : 416 Кбит/сек
Каналы                                   : 2 канала
Расположение каналов                     : Front: L R
Частота                                  : 44,1 КГц
Метод сжатия                             : С потерями
Размер потока                            : 8,89 Мбайт (100%)
Дата кодирования                         : UTC 2014-08-16 14:23:12
Дата пометки                             : UTC 2014-08-16 14:23:18

Меню
00:00:00.047                             : Сантиметр тела

Общее
Полное имя                               : C:\Users\PASHA\Desktop\Света и группа Амстердам - Света и группа Амстердам (2007)\04. Вечером.m4a
Формат                                   : MPEG-4
Профиль формата                          : Apple audio with iTunes info
Идентификатор кодека                     : M4A
Размер файла                             : 8,45 Мбайт
Продолжительность                        : 3 м. 28 с.
Режим общего битрейта                    : Переменный
Общий поток                              : 340 Кбит/сек
Альбом                                   : Света и группа Амстердам
Трек                                     : Вечером
Трек/Положение                           : 4
Трек/Всего                               : 11
Исполнитель                              : Света и группа Амстердам
Жанр                                     : Pop
Дата записи                              : 2007
Дата кодирования                         : UTC 2014-08-16 14:23:12
Дата пометки                             : UTC 2014-08-16 14:23:18
Программа кодирования                    : qaac 2.19, CoreAudioToolbox 7.9.8.3, AAC-LC Encoder, TVBR q127, Quality 96
Примечание                               : ExactAudioCopy v0.99pb3. SiriusNightE for flacmusic.ru
DISCID                                   : AF0C880C

Аудио
Идентификатор                            : 1
Формат                                   : AAC
Формат/Информация                        : Advanced Audio Codec
Профиль формата                          : LC
Идентификатор кодека                     : 40
Продолжительность                        : 3 м. 28 с.
Вид битрейта                             : Переменный
Битрейт                                  : 338 Кбит/сек
Максимальный битрейт                     : 397 Кбит/сек
Каналы                                   : 2 канала
Расположение каналов                     : Front: L R
Частота                                  : 44,1 КГц
Метод сжатия                             : С потерями
Размер потока                            : 8,41 Мбайт (100%)
Дата кодирования                         : UTC 2014-08-16 14:23:12
Дата пометки                             : UTC 2014-08-16 14:23:18

Меню
00:00:00.047                             : Вечером

Общее
Полное имя                               : C:\Users\PASHA\Desktop\Света и группа Амстердам - Света и группа Амстердам (2007)\05. Вот и все.m4a
Формат                                   : MPEG-4
Профиль формата                          : Apple audio with iTunes info
Идентификатор кодека                     : M4A
Размер файла                             : 9,70 Мбайт
Продолжительность                        : 3 м. 49 с.
Режим общего битрейта                    : Переменный
Общий поток                              : 355 Кбит/сек
Альбом                                   : Света и группа Амстердам
Трек                                     : Вот и все
Трек/Положение                           : 5
Трек/Всего                               : 11
Исполнитель                              : Света и группа Амстердам
Жанр                                     : Pop
Дата записи                              : 2007
Дата кодирования                         : UTC 2014-08-16 14:23:18
Дата пометки                             : UTC 2014-08-16 14:23:25
Программа кодирования                    : qaac 2.19, CoreAudioToolbox 7.9.8.3, AAC-LC Encoder, TVBR q127, Quality 96
Примечание                               : ExactAudioCopy v0.99pb3. SiriusNightE for flacmusic.ru
DISCID                                   : AF0C880C

Аудио
Идентификатор                            : 1
Формат                                   : AAC
Формат/Информация                        : Advanced Audio Codec
Профиль формата                          : LC
Идентификатор кодека                     : 40
Продолжительность                        : 3 м. 49 с.
Вид битрейта                             : Переменный
Битрейт                                  : 353 Кбит/сек
Максимальный битрейт                     : 401 Кбит/сек
Каналы                                   : 2 канала
Расположение каналов                     : Front: L R
Частота                                  : 44,1 КГц
Метод сжатия                             : С потерями
Размер потока                            : 9,65 Мбайт (100%)
Дата кодирования                         : UTC 2014-08-16 14:23:18
Дата пометки                             : UTC 2014-08-16 14:23:25

Меню
00:00:00.047                             : Вот и все

Общее
Полное имя                               : C:\Users\PASHA\Desktop\Света и группа Амстердам - Света и группа Амстердам (2007)\06. Город счастья (Амстердам).m4a
Формат                                   : MPEG-4
Профиль формата                          : Apple audio with iTunes info
Идентификатор кодека                     : M4A
Размер файла                             : 8,83 Мбайт
Продолжительность                        : 3 м. 27 с.
Режим общего битрейта                    : Переменный
Общий поток                              : 356 Кбит/сек
Альбом                                   : Света и группа Амстердам
Трек                                     : Город счастья (Амстердам)
Трек/Положение                           : 6
Трек/Всего                               : 11
Исполнитель                              : Света и группа Амстердам
Жанр                                     : Pop
Дата записи                              : 2007
Дата кодирования                         : UTC 2014-08-16 14:23:19
Дата пометки                             : UTC 2014-08-16 14:23:25
Программа кодирования                    : qaac 2.19, CoreAudioToolbox 7.9.8.3, AAC-LC Encoder, TVBR q127, Quality 96
Примечание                               : ExactAudioCopy v0.99pb3. SiriusNightE for flacmusic.ru
DISCID                                   : AF0C880C

Аудио
Идентификатор                            : 1
Формат                                   : AAC
Формат/Информация                        : Advanced Audio Codec
Профиль формата                          : LC
Идентификатор кодека                     : 40
Продолжительность                        : 3 м. 27 с.
Вид битрейта                             : Переменный
Битрейт                                  : 353 Кбит/сек
Максимальный битрейт                     : 395 Кбит/сек
Каналы                                   : 2 канала
Расположение каналов                     : Front: L R
Частота                                  : 44,1 КГц
Метод сжатия                             : С потерями
Размер потока                            : 8,79 Мбайт (100%)
Дата кодирования                         : UTC 2014-08-16 14:23:19
Дата пометки                             : UTC 2014-08-16 14:23:25

Меню
00:00:00.047                             : Город счастья (Амстердам)

Общее
Полное имя                               : C:\Users\PASHA\Desktop\Света и группа Амстердам - Света и группа Амстердам (2007)\07. Этой ночью.m4a
Формат                                   : MPEG-4
Профиль формата                          : Apple audio with iTunes info
Идентификатор кодека                     : M4A
Размер файла                             : 8,93 Мбайт
Продолжительность                        : 3 м. 26 с.
Режим общего битрейта                    : Переменный
Общий поток                              : 363 Кбит/сек
Альбом                                   : Света и группа Амстердам
Трек                                     : Этой ночью
Трек/Положение                           : 7
Трек/Всего                               : 11
Исполнитель                              : Света и группа Амстердам
Жанр                                     : Pop
Дата записи                              : 2007
Дата кодирования                         : UTC 2014-08-16 14:23:19
Дата пометки                             : UTC 2014-08-16 14:23:26
Программа кодирования                    : qaac 2.19, CoreAudioToolbox 7.9.8.3, AAC-LC Encoder, TVBR q127, Quality 96
Примечание                               : ExactAudioCopy v0.99pb3. SiriusNightE for flacmusic.ru
DISCID                                   : AF0C880C

Аудио
Идентификатор                            : 1
Формат                                   : AAC
Формат/Информация                        : Advanced Audio Codec
Профиль формата                          : LC
Идентификатор кодека                     : 40
Продолжительность                        : 3 м. 26 с.
Вид битрейта                             : Переменный
Битрейт                                  : 361 Кбит/сек
Максимальный битрейт                     : 406 Кбит/сек
Каналы                                   : 2 канала
Расположение каналов                     : Front: L R
Частота                                  : 44,1 КГц
Метод сжатия                             : С потерями
Размер потока                            : 8,89 Мбайт (100%)
Дата кодирования                         : UTC 2014-08-16 14:23:19
Дата пометки                             : UTC 2014-08-16 14:23:25

Меню
00:00:00.047                             : Этой ночью

Общее
Полное имя                               : C:\Users\PASHA\Desktop\Света и группа Амстердам - Света и группа Амстердам (2007)\08. Шоколадная любовь.m4a
Формат                                   : MPEG-4
Профиль формата                          : Apple audio with iTunes info
Идентификатор кодека                     : M4A
Размер файла                             : 6,85 Мбайт
Продолжительность                        : 2 м. 55 с.
Режим общего битрейта                    : Переменный
Общий поток                              : 327 Кбит/сек
Альбом                                   : Света и группа Амстердам
Трек                                     : Шоколадная любовь
Трек/Положение                           : 8
Трек/Всего                               : 11
Исполнитель                              : Света и группа Амстердам
Жанр                                     : Pop
Дата записи                              : 2007
Дата кодирования                         : UTC 2014-08-16 14:23:19
Дата пометки                             : UTC 2014-08-16 14:23:24
Программа кодирования                    : qaac 2.19, CoreAudioToolbox 7.9.8.3, AAC-LC Encoder, TVBR q127, Quality 96
Примечание                               : ExactAudioCopy v0.99pb3. SiriusNightE for flacmusic.ru
DISCID                                   : AF0C880C

Аудио
Идентификатор                            : 1
Формат                                   : AAC
Формат/Информация                        : Advanced Audio Codec
Профиль формата                          : LC
Идентификатор кодека                     : 40
Продолжительность                        : 2 м. 55 с.
Вид битрейта                             : Переменный
Битрейт                                  : 326 Кбит/сек
Максимальный битрейт                     : 391 Кбит/сек
Каналы                                   : 2 канала
Расположение каналов                     : Front: L R
Частота                                  : 44,1 КГц
Метод сжатия                             : С потерями
Размер потока                            : 6,81 Мбайт (99%)
Дата кодирования                         : UTC 2014-08-16 14:23:19
Дата пометки                             : UTC 2014-08-16 14:23:24

Меню
00:00:00.047                             : Шоколадная любовь

Общее
Полное имя                               : C:\Users\PASHA\Desktop\Света и группа Амстердам - Света и группа Амстердам (2007)\09. Мечтать не вредно.m4a
Формат                                   : MPEG-4
Профиль формата                          : Apple audio with iTunes info
Идентификатор кодека                     : M4A
Размер файла                             : 8,44 Мбайт
Продолжительность                        : 3 м. 21 с.
Режим общего битрейта                    : Переменный
Общий поток                              : 351 Кбит/сек
Альбом                                   : Света и группа Амстердам
Трек                                     : Мечтать не вредно
Трек/Положение                           : 9
Трек/Всего                               : 11
Исполнитель                              : Света и группа Амстердам
Жанр                                     : Pop
Дата записи                              : 2007
Дата кодирования                         : UTC 2014-08-16 14:23:25
Дата пометки                             : UTC 2014-08-16 14:23:30
Программа кодирования                    : qaac 2.19, CoreAudioToolbox 7.9.8.3, AAC-LC Encoder, TVBR q127, Quality 96
Примечание                               : ExactAudioCopy v0.99pb3. SiriusNightE for flacmusic.ru
DISCID                                   : AF0C880C

Аудио
Идентификатор                            : 1
Формат                                   : AAC
Формат/Информация                        : Advanced Audio Codec
Профиль формата                          : LC
Идентификатор кодека                     : 40
Продолжительность                        : 3 м. 21 с.
Вид битрейта                             : Переменный
Битрейт                                  : 353 Кбит/сек
Максимальный битрейт                     : 405 Кбит/сек
Каналы                                   : 2 канала
Расположение каналов                     : Front: L R
Частота                                  : 44,1 КГц
Метод сжатия                             : С потерями
Размер потока                            : 8,40 Мбайт (100%)
Дата кодирования                         : UTC 2014-08-16 14:23:25
Дата пометки                             : UTC 2014-08-16 14:23:30

Меню
00:00:00.047                             : Мечтать не вредно

Общее
Полное имя                               : C:\Users\PASHA\Desktop\Света и группа Амстердам - Света и группа Амстердам (2007)\10. Конфета.m4a
Формат                                   : MPEG-4
Профиль формата                          : Apple audio with iTunes info
Идентификатор кодека                     : M4A
Размер файла                             : 9,62 Мбайт
Продолжительность                        : 4 м. 12 с.
Режим общего битрейта                    : Переменный
Общий поток                              : 320 Кбит/сек
Альбом                                   : Света и группа Амстердам
Трек                                     : Конфета
Трек/Положение                           : 10
Трек/Всего                               : 11
Исполнитель                              : Света и группа Амстердам
Жанр                                     : Pop
Дата записи                              : 2007
Дата кодирования                         : UTC 2014-08-16 14:23:26
Дата пометки                             : UTC 2014-08-16 14:23:32
Программа кодирования                    : qaac 2.19, CoreAudioToolbox 7.9.8.3, AAC-LC Encoder, TVBR q127, Quality 96
Примечание                               : ExactAudioCopy v0.99pb3. SiriusNightE for flacmusic.ru
DISCID                                   : AF0C880C

Аудио
Идентификатор                            : 1
Формат                                   : AAC
Формат/Информация                        : Advanced Audio Codec
Профиль формата                          : LC
Идентификатор кодека                     : 40
Продолжительность                        : 4 м. 12 с.
Вид битрейта                             : Переменный
Битрейт                                  : 318 Кбит/сек
Максимальный битрейт                     : 400 Кбит/сек
Каналы                                   : 2 канала
Расположение каналов                     : Front: L R
Частота                                  : 44,1 КГц
Метод сжатия                             : С потерями
Размер потока                            : 9,57 Мбайт (100%)
Дата кодирования                         : UTC 2014-08-16 14:23:26
Дата пометки                             : UTC 2014-08-16 14:23:32

Меню
00:00:00.047                             : Конфета

Общее
Полное имя                               : C:\Users\PASHA\Desktop\Света и группа Амстердам - Света и группа Амстердам (2007)\11. Америка.m4a
Формат                                   : MPEG-4
Профиль формата                          : Apple audio with iTunes info
Идентификатор кодека                     : M4A
Размер файла                             : 8,52 Мбайт
Продолжительность                        : 3 м. 30 с.
Режим общего битрейта                    : Переменный
Общий поток                              : 340 Кбит/сек
Альбом                                   : Света и группа Амстердам
Трек                                     : Америка
Трек/Положение                           : 11
Трек/Всего                               : 11
Исполнитель                              : Света и группа Амстердам
Жанр                                     : Pop
Дата записи                              : 2007
Дата кодирования                         : UTC 2014-08-16 14:23:26
Дата пометки                             : UTC 2014-08-16 14:23:31
Программа кодирования                    : qaac 2.19, CoreAudioToolbox 7.9.8.3, AAC-LC Encoder, TVBR q127, Quality 96
Примечание                               : ExactAudioCopy v0.99pb3. SiriusNightE for flacmusic.ru
DISCID                                   : AF0C880C

Аудио
Идентификатор                            : 1
Формат                                   : AAC
Формат/Информация                        : Advanced Audio Codec
Профиль формата                          : LC
Идентификатор кодека                     : 40
Продолжительность                        : 3 м. 30 с.
Вид битрейта                             : Переменный
Битрейт                                  : 338 Кбит/сек
Максимальный битрейт                     : 380 Кбит/сек
Каналы                                   : 2 канала
Расположение каналов                     : Front: L R
Частота                                  : 44,1 КГц
Метод сжатия                             : С потерями
Размер потока                            : 8,48 Мбайт (100%)
Дата кодирования                         : UTC 2014-08-16 14:23:26
Дата пометки                             : UTC 2014-08-16 14:23:31

Меню
00:00:00.047                             : Америка

Отчёт Mp3tag:

Код:

 Света и группа Амстердам - Света и группа Амстердам (2007) | 96,24 MB | Folder Total 1 |
 Folder 001 | Света и группа Амстердам - Света и группа Амстердам (2007) | Album - Света и группа Амстердам | 96,24 MB | 11 Files | 00:39:02 hrs | qaac 2.19, CoreAudioToolbox 7.9.8.3, AAC-LC Encoder, TVBR q127, Quality 96

 001 | 03:16 min | 371 kbps  | 44100 Hz | 2 | AAC | 8,70 MB | 01. Коктейль 'Депрессия' | Коктейль 'Депрессия'
 002 | 03:59 min | 325 kbps  | 44100 Hz | 2 | AAC | 9,29 MB | 02. Амиго | Амиго
 003 | 03:36 min | 345 kbps  | 44100 Hz | 2 | AAC | 8,93 MB | 03. Сантиметр тела | Сантиметр тела
 004 | 03:29 min | 338 kbps  | 44100 Hz | 2 | AAC | 8,45 MB | 04. Вечером | Вечером
 005 | 03:49 min | 353 kbps  | 44100 Hz | 2 | AAC | 9,70 MB | 05. Вот и все | Вот и все
 006 | 03:28 min | 355 kbps  | 44100 Hz | 2 | AAC | 8,83 MB | 06. Город счастья (Амстердам) | Город счастья (Амстердам)
 007 | 03:26 min | 361 kbps  | 44100 Hz | 2 | AAC | 8,93 MB | 07. Этой ночью | Этой ночью
 008 | 02:55 min | 326 kbps  | 44100 Hz | 2 | AAC | 6,85 MB | 08. Шоколадная любовь | Шоколадная любовь
 009 | 03:22 min | 349 kbps  | 44100 Hz | 2 | AAC | 8,44 MB | 09. Мечтать не вредно | Мечтать не вредно
 010 | 04:12 min | 318 kbps  | 44100 Hz | 2 | AAC | 9,62 MB | 10. Конфета | Конфета
 011 | 03:30 min | 338 kbps  | 44100 Hz | 2 | AAC | 8,52 MB | 11. Америка | Америка

Спектрограмма:

YouTube
Детали торрента:
Название:Света и группа Амстердам - Света и группа Амстердам (2007) [AAC|318-371 кб/с]<Pop, Pop Rock>
Дата добавления:16 Авг 2014 17:40:57
Размер:96,4 MB
Раздают:
Качают:0
Форум:Музыка (AAC)

All rights reserved © 2015-2018