TORRENTS43.COM

Скачать Приключения Котигорошко и его друзей / Пригоди Котигорошка та його друзів (2014) DVB (серии 1-4 из 4) [UKR]


Приключения Котигорошко и его друзей / Пригоди Котигорошка та його друзів (2014) DVB (серии 1-4 из 4) [UKR]
Русское название: Приключения Котигорошко и его друзей
Оригинальное название: Пригоди Котигорошка та його друзів
Производство: "Film.ua", Украина
Год выпуска: 2014
Жанр: Мультфильм, Комедия
Язык: Украинский

Режиссер: Ярослава Руденко-Шведова
Персонажи: Котигорошко, Вернигора, Вернидуб и Крутиус.

Описание фильма:
Чрезвычайно забавные и добрые историй о славном герое украинских сказок. Вместе со своими друзьями и болтливой птицей Одутом (сидит на плече и ведет себя, как пиратский попугай), Котигорошко постоянно попадает в передряги - то забирается в логово великанов, то ловит пакостных чертей. И что интересно - после каждого такого приключения злые силы получают заслуженное наказание, а добро празднует победу.
Зрители 1+1 увидят сразу четыре серии мультфильма. В каждой из них - новый сюжет. Но главные герои неизменны: это сам Котигорошко и его дружки-богатыри Вернигора, Вернидуб и Крутиус.



Продолжительность: 4 x ~ 00:13:00
Качество видео: DVB

Видеокодек: MPEG-2
Битрейт видео: ~5000 Kbps
Размер кадра: 704x576 (4:3)
Аудиокодек: MP2
Битрейт аудио: 2 ch, 192 Kbps

MediaInfo:

Код: выделить все
Общее
Полное имя : E:\DOWNLOADS\Приключения Котигорошко (Пригоди Котигорошка) (2014) DVB\Приключения Котигорошко (Пригоди Котигорошка) - 01 серия.mpg
Формат : MPEG-PS
Размер файла : 497 Мбайт
Продолжительность : 13 м.
Режим общего битрейта : Переменный
Общий поток : 5295 Кбит/сек
Библиотека кодирования : (dvd5: Dec 5 2013)

Видео
Идентификатор : 224 (0xE0)
Формат : MPEG Video
Версия формата : Version 2
Профиль формата : Main@Main
Параметр BVOP формата : Да
Параметр матрицы формата : Выборочная
Параметр GOP формата : Variable
Продолжительность : 13 м.
Вид битрейта : Переменный
Битрейт : 4998 Кбит/сек
Максимальный битрейт : 15,0 Мбит/сек
Ширина : 704 пикселя
Высота : 576 пикселей
Соотношение сторон : 4:3
Частота кадров : 25,000 кадров/сек
Стандарт вещания : PAL
Цветовое пространство : YUV
Субдискретизация насыщенности : 4:2:0
Битовая глубина : 8 бит
Метод сжатия : С потерями
Бит/(Пиксели*Кадры) : 0.493
Временной код первого кадра : 00:00:00:00
Оригинал временного кода : Group of pictures header
Размер потока : 469 Мбайт (94%)
Библиотека кодирования : (dvd5: Dec 5 2013)

Аудио
Идентификатор : 192 (0xC0)
Формат : MPEG Audio
Версия формата : Version 1
Профиль формата : Layer 2
Продолжительность : 13 м.
Вид битрейта : Постоянный
Битрейт : 192 Кбит/сек
Каналы : 2 канала
Частота : 48,0 КГц
Метод сжатия : С потерями
Задержка видео : -80 мс.
Размер потока : 18,0 Мбайт (4%)

Список серий

01 серия - Солом'яний бичок.
02 серия - Лісовик.
03 серия - Наречена для Котигорошка.
04 серия - Помста чорта Хмирі.
Скриншоты:


Все раздачи сериала «Приключения Котигорошко и его друзей»

Детали торрента:
Название:Приключения Котигорошко и его друзей / Пригоди Котигорошка та його друзів (2014) DVB (серии 1-4 из 4) [UKR]
Дата добавления:28 Авг 2014 17:50:39
Размер:1,94 GB
Раздают:2
Качают:0
Форум:Отечественные Мультсериалы

All rights reserved © 2015-2018