TORRENTS43.COM

Скачать Марьяна / Marianna (2013) HDRip [UKR]


Марьяна / Marianna (2013) HDRip
Год выпуска: 2013
Жанр: Короткометражка, Боевик, Драма, Комедия

Описание фильма:
Оставив ему женское имя, отец исчез из его жизни. Марьяна через насмешки и издевательства выработал принцип - никому не давать в обиду себя. Однако это кредо и наразило его на смертельную опасность...

Режиссер: Иван Федорыч
Актеры: Мыкола Береза, Юрий Хвостенко, Олег Цьона, Денис Ефименко

Продолжительность: 00:31:52
Качество видео: HDRip
Перевод: Отсутствует
Язык: Украинский



Видеокодек: Xvid
Битрейт видео: ~1962 кб/с
Размер кадра: 720x400
Аудиокодек: AC3 2.0
Битрейт аудио: 224 кб/с
Сэмпл: Скачать

MediaInfo

Полное имя : Марианна.avi
Формат : AVI
Формат/Информация : Audio Video Interleave
Размер файла : 500 Мбайт
Продолжительность : 31 м.
Общий поток : 2196 Кбит/сек
Программа кодирования : VirtualDubMod 1.5.10.3 | www.virtualdub-fr.org || (build 2550/release)
Библиотека кодирования : VirtualDubMod build 2550/release

Видео
Идентификатор : 0
Формат : MPEG-4 Visual
Профиль формата : Advanced Simple@L5
Параметр BVOP формата : 1
Параметр QPel формата : Нет
Параметр GMC формата : Без точки перехода
Параметр матрицы формата : Default (H.263)
Идентификатор кодека : XVID
Идентификатор кодека/Подсказка : XviD
Продолжительность : 31 м.
Битрейт : 1962 Кбит/сек
Ширина : 720 пикселей
Высота : 400 пикселей
Соотношение сторон : 16:9
Частота кадров : 24,000 кадра/сек
Цветовое пространство : YUV
Субдискретизация насыщенности : 4:2:0
Битовая глубина : 8 бит
Тип развёртки : Прогрессивная
Метод сжатия : С потерями
Бит/(Пиксели*Кадры) : 0.284
Размер потока : 447 Мбайт (89%)
Библиотека кодирования : XviD 1.2.1 (UTC 2008-12-04)

Аудио
Идентификатор : 1
Формат : AC-3
Формат/Информация : Audio Coding 3
Расширение режима : CM (complete main)
Параметр Endianness формата : Big
Идентификатор кодека : 2000
Продолжительность : 31 м.
Вид битрейта : Постоянный
Битрейт : 224 Кбит/сек
Каналы : 2 канала
Расположение каналов : Front: L R
Частота : 48,0 КГц
Битовая глубина : 16 бит
Метод сжатия : С потерями
Размер потока : 51,0 Мбайт (10%)
Выравнивание : Разделение по промежуткам
Продолжительность промежутка : 42 мс. (1,00 видеокадр)
Время предзагрузки промежутка : 500 мс.
Скриншоты:


Детали торрента:
Название:Марьяна / Marianna (2013) HDRip [UKR]
Дата добавления:07 Сен 2014 15:06:13
Размер:500 MB
Раздают:
Качают:0
Форум:Фильмы в оригинале

All rights reserved © 2015-2018