TORRENTS43.COM

Скачать День драфта / Draft Day (2014) BDRip [720p]


День драфта / Draft Day (2014) BDRip
Год выпуска: 2014
Производство: США - Summit Entertainment, OddLot Entertainment, Montecito Picture Company
Жанр: Драма, спорт

Режиссер: Айвэн Рейтмен / Ivan Reitman
Актеры: Кевин Костнер, Дженнифер Гарнер, Дэнис Лири, Фрэнк Ланджелла, Терри Крюс, Сэм Эллиотт, Эллен Бёрстин, Чэдвик Боузмэн, Крис Берман, Дэйв Дональдсон, Патрик Ст. Эсприт

Описание фильма:
Главный герой картины — менеджер Cleveland Browns, пытающийся привлечь в свою команду перспективного игрока…

Перевод: Многоголосый закадровый, любительский [Savetig Studios]
Субтитры: Вшитые отключаемые
Язык субтитров: Русский



Дата мировой премьеры: 11 апреля 2014

Продолжительность: 01:50:00
Качество видео: BDRip 720p

Видеокодек: MPEG-4 AVC/H.264
Видео: 6462 Кбит/с, 1280x534, 23.976 кадр/с
Аудио #1: Русский: AC3 5.1, 448 Кбит/с, 48 kHz, 16 bit
Аудио #2: Английский: AC3 5.1, 640 Кбит/с, 48 kHz, 16 bit

Сохранены оригинальные чаптеры как на Blu-Ray

MediaInfo:

Общее
Уникальный идентификатор : 170252421620042096666709158876101778288 (0x80156C76F6CEC0FCB9D09D0413849B70)
Полное имя : D:\Video\Draft.Day.2014.720p.BluRay.x264-WiKi.mkv
Формат : Matroska
Версия формата : Version 4 / Version 2
Размер файла : 5,80 Гбайт
Продолжительность : 1 ч. 50 м.
Общий поток : 7551 Кбит/сек
Название фильма : Jubowo @ WiKi
Дата кодирования : UTC 2014-09-07 12:10:54
Программа кодирования : mkvmerge v6.3.0 ('You can't stop me!') built on Jun 28 2013 20:09:41
Библиотека кодирования : libebml v1.3.0 + libmatroska v1.4.0

Видео
Идентификатор : 1
Формат : AVC
Формат/Информация : Advanced Video Codec
Профиль формата : High@L4.1
Параметр CABAC формата : Да
Параметр ReFrames формата : 12 кадров
Идентификатор кодека : V_MPEG4/ISO/AVC
Продолжительность : 1 ч. 50 м.
Битрейт : 6462 Кбит/сек
Ширина : 1280 пикселей
Высота : 534 пикселя
Соотношение сторон : 2,40:1
Частота кадров : 23,976 кадра/сек
Цветовое пространство : YUV
Субдискретизация насыщенности : 4:2:0
Битовая глубина : 8 бит
Тип развёртки : Прогрессивная
Бит/(Пиксели*Кадры) : 0.394
Размер потока : 4,85 Гбайт (84%)
Библиотека кодирования : x264 core 129 r2245+704+36 8e61944 tMod+MixAQ [8-bit@4:2:0 X86]
Настройки программы : cabac=1 / ref=12 / deblock=1:-3:-3 / analyse=0x3:0x133 / me=umh / subme=11 / psy=1 / fade_compensate=0.00 / psy_rd=1.05:0.10 / mixed_ref=1 / me_range=32 / chroma_me=1 / trellis=2 / 8x8dct=1 / cqm=0 / deadzone=21,11 / fast_pskip=0 / chroma_qp_offset=-3 / threads=18 / lookahead_threads=3 / sliced_threads=0 / nr=0 / decimate=0 / interlaced=0 / bluray_compat=0 / constrained_intra=0 / fgo=0 / bframes=8 / b_pyramid=2 / b_adapt=2 / b_bias=0 / direct=3 / weightb=1 / open_gop=0 / weightp=2 / keyint=250 / keyint_min=23 / scenecut=40 / intra_refresh=0 / rc_lookahead=80 / rc=2pass / mbtree=1 / bitrate=6462 / ratetol=1.0 / qcomp=0.70 / qpmin=0 / qpmax=69 / qpstep=4 / cplxblur=20.0 / qblur=0.5 / ip_ratio=1.40 / aq=3 / aq-strength=0.85 / aq-sensitivity=10.00 / aq-ifactor=1.00 / aq-pfactor=1.00 / aq-bfactor=1.00 / aq2=0
Язык : English
Default : Да
Forced : Нет

Аудио #1
Идентификатор : 2
Формат : AC-3
Формат/Информация : Audio Coding 3
Расширение режима : CM (complete main)
Идентификатор кодека : A_AC3
Продолжительность : 1 ч. 50 м.
Вид битрейта : Постоянный
Битрейт : 448 Кбит/сек
Каналы : 6 каналов
Расположение каналов : Front: L C R, Side: L R, LFE
Частота : 48,0 КГц
Битовая глубина : 16 бит
Метод сжатия : С потерями
Размер потока : 352 Мбайт (6%)
Язык : Russian
Default : Нет
Forced : Нет

Аудио #2
Идентификатор : 3
Формат : AC-3
Формат/Информация : Audio Coding 3
Расширение режима : CM (complete main)
Идентификатор кодека : A_AC3
Продолжительность : 1 ч. 50 м.
Вид битрейта : Постоянный
Битрейт : 640 Кбит/сек
Каналы : 6 каналов
Расположение каналов : Front: L C R, Side: L R, LFE
Частота : 48,0 КГц
Битовая глубина : 16 бит
Метод сжатия : С потерями
Размер потока : 504 Мбайт (8%)
Язык : English
Default : Нет
Forced : Нет

Текст
Идентификатор : 4
Формат : UTF-8
Идентификатор кодека : S_TEXT/UTF8
Идентификатор кодека/Информация : UTF-8 Plain Text
Язык : Russian
Default : Да
Forced : Нет

Меню
00:00:00.000 : en:00:00:00.000
00:03:43.473 : en:00:03:43.473
00:13:12.958 : en:00:13:12.958
00:22:27.596 : en:00:22:27.596
00:29:29.809 : en:00:29:29.809
00:36:38.362 : en:00:36:38.362
00:46:23.739 : en:00:46:23.739
00:52:07.332 : en:00:52:07.332
00:59:12.882 : en:00:59:12.882
01:04:34.578 : en:01:04:34.578
01:10:19.339 : en:01:10:19.339
01:17:51.208 : en:01:17:51.208
01:20:28.406 : en:01:20:28.406
01:29:07.842 : en:01:29:07.842
01:36:15.227 : en:01:36:15.227
01:41:19.031 : en:01:41:19.031
Скриншоты:



Смотреть Online

http://moonwalk.cc/video/1d95b8541d4b876b/iframe
Детали торрента:
Название:День драфта / Draft Day (2014) BDRip [720p]
Дата добавления:07 Сен 2014 16:03:48
Размер:5,8 GB
Раздают:
Качают:0
Форум:Зарубежные Фильмы (HD, UHD-LQ)

All rights reserved © 2015-2018