TORRENTS43.COM

Скачать Дом Хемингуэй / Dom Hemingway (2013) BDRemux [1080p]


Дом Хемингуэй / Dom Hemingway (2013) BDRemux
«Jude Law is Dom Hemingway and you're not»

Год выпуска: 2013
Производство: Великобритания | Recorded Picture Company (RPC), BBC Films, Isle of Man Film
Жанр: Драма, Комедия, Криминал

Режиссер: Ричард Шепард
Продюсер: Джереми Томас, Джон Бернард, Иван Данливи
Актеры: Джуд Лоу, Ричард Э. Грант, Демиан Бишир, Эмилия Кларк, Лука Франзони, Ричард Грэхэм, Джордж Суини, Марк Уингетт, Дэвид Бокэм, Ник Раггетт...

Описание фильма:
Главный герой, виртуозный взломщик сейфов, отличающийся весёлым нравом и цинизмом, но при этом представляющий реальную угрозу. Проведя 12 лет в тюрьме и выйдя на свободу, он намерен востребовать должок, который причитается ему за то, что он держал язык за зубами.

Перевод: Многоголосый закадровый (лицензия), Одноголосый закадровый (любительский)
Субтитры: Вшитые отключаемые
Язык субтитров: Русский, Английский



Дата мировой премьеры: 8 сентября 2013
Дата выхода DVD релиза: 16 сентября 2014, «Lizard Cinema Trade»

рейтинг MPAA: R — Лицам до 17 лет обязательно присутствие взрослого
16+

Продолжительность: 01:33:49
Качество видео: BDRemux

Видеокодек: MPEG-4 AVC/H.264
Битрейт видео: ~28075 kbps
Размер кадра: 1920x1080
Аудио 1: AC3 2.0, 192 kbps, русский | DVD5 R5 «Lizard Cinema Trade»
Аудио 2: DTS 5.1, 768 kbps, русский | VO (Есарев)
Аудио 3: DTS-HD MA 5.1, 48 kHz, 2111 kbps, 24-bit (DTS Core: 5.1, 48 kHz, 768 kbps, 24-bit) | английский
Главы сохранены

MediaInfo:

Код:
General
Unique ID                                : 218832893664509755280385666412183673506 (0xA4A1AEA969C0BF988C96CD51C041DAA2)
Complete name                            : :\\\Dom.Hemingyvei.(2013).BDRemux.1080p.mkv
Format                                   : Matroska
Format version                           : Version 4 / Version 2
File size                                : 20.4 GiB
Duration                                 : 1h 33mn
Overall bit rate mode                    : Variable
Overall bit rate                         : 31.1 Mbps
Encoded date                             : UTC 2014-09-16 16:44:14
Writing application                      : mkvmerge v7.2.0 ('On Every Street') 64bit built on Sep 13 2014 15:52:10
Writing library                          : libebml v1.3.0 + libmatroska v1.4.1
DURATION                                 : 01:33:46.742000000
NUMBER_OF_FRAMES                         : 527510
NUMBER_OF_BYTES                          : 530675060
_STATISTICS_WRITING_APP                  : mkvmerge v7.2.0 ('On Every Street') 64bit built on Sep 13 2014 15:52:10
_STATISTICS_WRITING_DATE_UTC             : 2014-09-16 16:44:14
_STATISTICS_TAGS                         : BPS DURATION NUMBER_OF_FRAMES NUMBER_OF_BYTES

Video
ID                                       : 1
Format                                   : AVC
Format/Info                              : Advanced Video Codec
Format profile                           : High@L4.1
Format settings, CABAC                   : Yes
Format settings, ReFrames                : 4 frames
Codec ID                                 : V_MPEG4/ISO/AVC
Duration                                 : 1h 33mn
Bit rate mode                            : Variable
Maximum bit rate                         : 35.0 Mbps
Width                                    : 1 920 pixels
Height                                   : 1 080 pixels
Display aspect ratio                     : 16:9
Frame rate mode                          : Constant
Frame rate                               : 24.000 fps
Standard                                 : NTSC
Color space                              : YUV
Chroma subsampling                       : 4:2:0
Bit depth                                : 8 bits
Scan type                                : Progressive
Default                                  : Yes
Forced                                   : No
Color primaries                          : BT.709
Transfer characteristics                 : BT.709
Matrix coefficients                      : BT.709

Audio #1
ID                                       : 2
Format                                   : AC-3
Format/Info                              : Audio Coding 3
Mode extension                           : CM (complete main)
Format settings, Endianness              : Big
Codec ID                                 : A_AC3
Duration                                 : 1h 33mn
Bit rate mode                            : Constant
Bit rate                                 : 192 Kbps
Channel(s)                               : 2 channels
Channel positions                        : Front: L R
Sampling rate                            : 48.0 KHz
Bit depth                                : 16 bits
Compression mode                         : Lossy
Stream size                              : 129 MiB (1%)
Language                                 : Russian
Default                                  : Yes
Forced                                   : No

Audio #2
ID                                       : 3
Format                                   : DTS
Format/Info                              : Digital Theater Systems
Mode                                     : 16
Format settings, Endianness              : Big
Codec ID                                 : A_DTS
Duration                                 : 1h 33mn
Bit rate mode                            : Constant
Bit rate                                 : 755 Kbps
Channel(s)                               : 6 channels
Channel positions                        : Front: L C R, Side: L R, LFE
Sampling rate                            : 48.0 KHz
Bit depth                                : 24 bits
Compression mode                         : Lossy
Stream size                              : 506 MiB (2%)
Title                                    : Esarev
Language                                 : Russian
Default                                  : No
Forced                                   : No

Audio #3
ID                                       : 4
Format                                   : DTS
Format/Info                              : Digital Theater Systems
Format profile                           : MA / Core
Mode                                     : 16
Format settings, Endianness              : Big
Codec ID                                 : A_DTS
Duration                                 : 1h 33mn
Bit rate mode                            : Variable
Bit rate                                 : Unknown / 768 Kbps
Channel(s)                               : 6 channels
Channel positions                        : Front: L C R, Side: L R, LFE
Sampling rate                            : 48.0 KHz
Bit depth                                : 24 bits
Compression mode                         : Lossless / Lossy
Language                                 : English
Default                                  : No
Forced                                   : No

Text #1
ID                                       : 5
Format                                   : UTF-8
Codec ID                                 : S_TEXT/UTF8
Codec ID/Info                            : UTF-8 Plain Text
Language                                 : Russian
Default                                  : No
Forced                                   : No

Text #2
ID                                       : 6
Format                                   : UTF-8
Codec ID                                 : S_TEXT/UTF8
Codec ID/Info                            : UTF-8 Plain Text
Language                                 : English
Default                                  : No
Forced                                   : No

Menu
00:00:00.000                             : en:00:00:00.000
00:09:03.000                             : en:00:09:03.000
00:18:11.083                             : en:00:18:11.083
00:25:12.000                             : en:00:25:12.000
00:33:03.917                             : en:00:33:03.917
00:40:41.667                             : en:00:40:41.667
00:49:16.000                             : en:00:49:16.000
00:57:46.167                             : en:00:57:46.167
01:05:01.500                             : en:01:05:01.500
01:14:03.292                             : en:01:14:03.292
01:18:30.250                             : en:01:18:30.250
01:24:48.958                             : en:01:24:48.958
Скриншоты:


Смотреть Online

http://moonwalk.cc/video/32909bbe40c7b41f/iframe
Детали торрента:
Название:Дом Хемингуэй / Dom Hemingway (2013) BDRemux [1080p]
Дата добавления:18 Сен 2014 21:57:14
Размер:20,4 GB
Раздают:1
Качают:0
Форум:Зарубежные Фильмы (HD, UHD-LQ)

All rights reserved © 2015-2018