TORRENTS43.COM

Скачать Основной элемент. Под колпаком (2014) SATRip


Основной элемент. Под колпаком (2014) SATRip
Режиссер / Телекомпания: Россия 2

Русское название: Основной элемент
Год выпуска: 2014
Жанр: Документальный, наука
Выпущено: Россия 2

Описание:
По дороге на работу или домой, в банке, в магазине, школе и транспорте нас постоянно держат в поле зрения сотни и тысячи невидимых устройств, камер, сканеров и прочих приборов тотального слежения. До какой степени будет ограничено личное пространство каждого из нас? Как сильно людей опутает глобальная сеть сбора информации?

Продолжительность: 00:26:02

Видеокодек: FMP4
Битрейт видео: ~1640 Кбит/сек
Размер кадра: 704 x 528
Качество видео: SATRip
Аудиокодек: MP3, 2ch.
Битрейт аудио: 128 Кбит/сек

MediaInfo:

Формат : AVI
Формат/Информация : Audio Video Interleave
Размер файла : 331 Мбайт
Продолжительность : 26 м.
Общий поток : 1778 Кбит/сек
Программа кодирования : Lavf52.84.0

Видео
Идентификатор : 0
Формат : MPEG-4 Visual
Профиль формата : Simple@L1
Параметр BVOP формата : Нет
Параметр QPel формата : Нет
Параметр GMC формата : Без точки перехода
Параметр матрицы формата : Default (H.263)
Идентификатор кодека : FMP4
Продолжительность : 26 м.
Битрейт : 1637 Кбит/сек
Ширина : 704 пикселя
Высота : 528 пикселей
Соотношение сторон : 4:3
Частота кадров : 25,000 кадров/сек
Цветовое пространство : YUV
Субдискретизация насыщенности : 4:2:0
Битовая глубина : 8 бит
Тип развёртки : Прогрессивная
Метод сжатия : С потерями
Бит/(Пиксели*Кадры) : 0.176
Размер потока : 305 Мбайт (92%)
Библиотека кодирования : Lavc52.97.0

Аудио
Идентификатор : 1
Формат : MPEG Audio
Версия формата : Version 1
Профиль формата : Layer 3
Режим : Joint stereo
Расширение режима : MS Stereo
Идентификатор кодека : 55
Идентификатор кодека/Подсказка : MP3
Продолжительность : 26 м.
Вид битрейта : Постоянный
Битрейт : 128 Кбит/сек
Каналы : 2 канала
Частота : 48,0 КГц
Метод сжатия : С потерями
Размер потока : 23,8 Мбайт (7%)
Выравнивание : Соединение по промежуткам
Продолжительность промежутка : 24 мс. (0,60 видеокадр)
Скриншоты:
Детали торрента:
Название:Основной элемент. Под колпаком (2014) SATRip
Дата добавления:18 Сен 2014 21:57:22
Размер:331 MB
Раздают:
Качают:0
Форум:Документалистика и Телепередачи

All rights reserved © 2015-2018