TORRENTS43.COM

Скачать Хотел бы я быть здесь / Wish I Was Here (2014) WEB-DLRip


Хотел бы я быть здесь / Wish I Was Here (2014) WEB-DLRip
Год выпуска: 2014
Производство: США / Double Feature Films, Worldview Entertainment
Жанр: Драма, Комедия

Режиссер: Зак Брафф
Продюсер: Мэттью Эндрюс, Адам Дж. Брафф, Зак Брафф
Актеры: Зак Брафф, Джош Гэд, Кейт Хадсон, Джим Парсонс, Джоуи Кинг, Эшли Грин, Мэнди Пэтинкин, Дональд Фейзон, Джеймс Эйвери, Майкл Уэстон, Пирс Ганьон, Александр Чаплин, Лесли Дэвид Бейкер, Аллан Рич, МакКейли Миллер

Описание фильма:
История Айдана Блума — актера, отца и мужа, который в свои 35 лет все еще пытается найти себя, цель своей жизни. Уча жизни двух своих детей, Айдан постепенно обнаруживает некоторые части себя, которые он не мог найти раньше…

Перевод: Дублированный [iTunes]
Субтитры: Отсутствуют



Дата мировой премьеры: 18 января 2014
Дата российской премьеры: 24 июля 2014, «Парадиз»
Дата выхода DVD релиза: 28 октября 2014, «Парадиз / Активижен»

Продолжительность: 01:41:52
Качество видео: WEB-DLRip

Видеокодек: Xvid
Битрейт видео: ~1659 Kb/s
Размер кадра: 720x320
Аудиокодек: AC3 6
Битрейт аудио: 384 Kb/s
Сэмпл: Скачать

MediaInfo:

Общее
Полное имя : E:\Фильмы\Хотел.бы.я.быть.здесь.2014.WEB-DLRip.1400MB.avi
Формат : AVI
Формат/Информация : Audio Video Interleave
Размер файла : 1,46 Гбайт
Продолжительность : 1 ч. 41 м.
Общий поток : 2053 Кбит/сек
Программа кодирования : VirtualDubMod 1.5.10.3 | www.virtualdub-fr.org || (build 2550/release)
Библиотека кодирования : VirtualDubMod build 2550/release

Видео
Идентификатор : 0
Формат : MPEG-4 Visual
Профиль формата : Advanced Simple@L5
Параметр BVOP формата : 2
Параметр QPel формата : Нет
Параметр GMC формата : Без точки перехода
Параметр матрицы формата : Default (MPEG)
Идентификатор кодека : XVID
Идентификатор кодека/Подсказка : XviD
Продолжительность : 1 ч. 41 м.
Битрейт : 1659 Кбит/сек
Ширина : 720 пикселей
Высота : 320 пикселей
Соотношение сторон : 2,25:1
Частота кадров : 25,000 кадров/сек
Цветовое пространство : YUV
Субдискретизация насыщенности : 4:2:0
Битовая глубина : 8 бит
Тип развёртки : Прогрессивная
Метод сжатия : С потерями
Бит/(Пиксели*Кадры) : 0.288
Размер потока : 1,18 Гбайт (81%)
Библиотека кодирования : XviD 1.2.1 (UTC 2008-12-04)

Аудио
Идентификатор : 1
Формат : AC-3
Формат/Информация : Audio Coding 3
Расширение режима : CM (complete main)
Параметр Endianness формата : Big
Идентификатор кодека : 2000
Продолжительность : 1 ч. 41 м.
Вид битрейта : Постоянный
Битрейт : 384 Кбит/сек
Каналы : 6 каналов
Расположение каналов : Front: L C R, Side: L R, LFE
Частота : 48,0 КГц
Битовая глубина : 16 бит
Метод сжатия : С потерями
Размер потока : 280 Мбайт (19%)
Выравнивание : Разделение по промежуткам
Продолжительность промежутка : 40 мс. (1,00 видеокадр)
Время предзагрузки промежутка : 500 мс.
Релиз группа:
Скриншоты:


Смотреть Online

http://moonwalk.cc/video/acecff98d20a0910/iframe
Детали торрента:
Название:Хотел бы я быть здесь / Wish I Was Here (2014) WEB-DLRip
Дата добавления:29 Сен 2014 06:15:25
Размер:1,46 GB
Раздают:1
Качают:0
Форум:Зарубежные Фильмы (HD*Rip/LQ, DVDRip, SATRip, VHSRip)

All rights reserved © 2015-2018