TORRENTS43.COM

Скачать Возмездие / Revenge (2014) WEB-DL [H.264/720p-LQ] (сезон 4, серии 1-10 из 22) NewStudio (Обновляемая)


Возмездие / Revenge
Год выпуска: 2014
Жанр: Драма, Детектив, Триллер

Перевод: Двуголосый закадровый, профессиональный - NewStudio
Релиз группа: NewStudio


Дата мировой премьеры: 21 сентября 2011
Дата российской премьеры: 18 января 2012

Режиссер: Кеннет Финк, Мэтт Эрл Бисли, Сэнфорд Букставер
Актеры: Эмили ВанКэмп (Эмили Торн), Робби Амелл (Adam), Макс Мартини (Frank Stevens), Стефен Эллиотт (The Body), Криста Б. Аллен (Charlotte Grayson), Mike Allison (Party Guest), Ric Bagoly (Yacht Partygoer), Джошуа Боуман (Daniel Grayson), Кристина Чанг (Karrie Thurgood), Генри Черни (Conrad Grayson), Ashley Driver (Tiffany), Кейт Харрис (Doug Reid), Эмили Элин Линд (Abigail)

Описание фильма:
Новый драматический проект от создателя Swingtown Майка Келли. Современный взгляд на «Графа де Монте Кристо». В центре повествования окажется Эмили Торн, молодая и красивая женщина которая ранее была известна под именем Аманда Кларк. Она приезжает в Хамптонс чтобы отомстить тем людям, которые разрушили ее семью. Их ждет возмездие...

Продолжительность: ~00:43:00 серия
Качество видео: WEB-DL 720p
Сэмпл: Скачать

Формат видео: MKV
Видео кодек: AVC (High@L3.1)
Битрейт видео: ~4151 Kbps kb/s
Размер кадра: 1280x720 (16:9)
Аудио 1 Rus: AC-3, 48.0 KHz, 6 ch, 384 Kbps, CBR, 16 bits - многоголосый закадровый
Аудио 2 Eng: AC-3, 48.0 KHz, 6 ch, 384 Kbps, CBR, 16 bits - оригинал

Список серий

01. Execution / Исполнение
02. Disclosure / Разоблачение
03. Ashes / Прах
04. Meteor / Метеор
05. Repercussions / Последствия
06. Damage / Урон
07. Ambush / Засада
08. Contact / Контакт
09. Intel / Информация
10. Atonement / Искупление

Тех. данные (MI)

Общее
Уникальный идентификатор : 170650428107504277642852374680617478126 (0x806213B31781CCB58E870CD621A5E7EE)
Полное имя : E:\Сериалы новые\Revenge.s04.NewStudio\Revenge.s04e01.WEBDL.720p.NewStudio.TV.mkv
Формат : Matroska
Версия формата : Version 2
Размер файла : 1,51 Гбайт
Продолжительность : 43 м.
Общий поток : 5019 Кбит/сек
Дата кодирования : UTC 2014-09-30 18:48:42
Программа кодирования : mkvmerge v2.9.9 ('Tutu') built on Nov 25 2009 21:13:32
Библиотека кодирования : libebml v0.7.9 + libmatroska v0.8.1
Attachements : small_cover.jpg / cover.jpg / cover_land.jpg / small_cover_land.jpg

Видео
Идентификатор : 1
Формат : AVC
Формат/Информация : Advanced Video Codec
Профиль формата : High@L3.1
Параметр CABAC формата : Нет
Параметр ReFrames формата : 2 кадра
Идентификатор кодека : V_MPEG4/ISO/AVC
Продолжительность : 43 м.
Битрейт : 4151 Кбит/сек
Ширина : 1280 пикселей
Высота : 720 пикселей
Соотношение сторон : 16:9
Режим частоты кадров : Постоянный
Частота кадров : 23,976 кадра/сек
Цветовое пространство : YUV
Субдискретизация насыщенности : 4:2:0
Битовая глубина : 8 бит
Тип развёртки : Прогрессивная
Бит/(Пиксели*Кадры) : 0.188
Размер потока : 1,25 Гбайт (83%)
Язык : English
Default : Нет
Forced : Нет
Основные цвета : BT.709
Характеристики трансфера : BT.709
Коэффициенты матрицы : BT.709

Аудио #1
Идентификатор : 2
Формат : AC-3
Формат/Информация : Audio Coding 3
Расширение режима : CM (complete main)
Параметр Endianness формата : Big
Идентификатор кодека : A_AC3
Продолжительность : 43 м.
Вид битрейта : Постоянный
Битрейт : 384 Кбит/сек
Каналы : 6 каналов
Расположение каналов : Front: L C R, Side: L R, LFE
Частота : 48,0 КГц
Битовая глубина : 16 бит
Метод сжатия : С потерями
Размер потока : 119 Мбайт (8%)
Заголовок : NewStudio.TV
Язык : Russian
Default : Да
Forced : Нет

Аудио #2
Идентификатор : 3
Формат : AC-3
Формат/Информация : Audio Coding 3
Расширение режима : CM (complete main)
Параметр Endianness формата : Big
Идентификатор кодека : A_AC3
Продолжительность : 43 м.
Вид битрейта : Постоянный
Битрейт : 384 Кбит/сек
Каналы : 6 каналов
Расположение каналов : Front: L C R, Side: L R, LFE
Частота : 48,0 КГц
Битовая глубина : 16 бит
Метод сжатия : С потерями
Размер потока : 119 Мбайт (8%)
Язык : English
Default : Нет
Forced : Нет

Внимание! Раздача ведётся путём добавления новых серий

Внимание! Раздача ведётся путём добавления новых серий; при каждом добавлении создаётся новый торрент.
Чтобы начать докачку новой серии, пользователям необходимо сделать следующее:
1. Остановить скачивание;
2. Удалить старый торрент у себя из клиента (старые серии удалять не надо);
3. Скачать новый торрент и запустить его у себя в клиенте вместо старого, при этом указать клиенту путь в старую папку куда и должно происходить скачивание новых серий. Ваш клиент при этом должен произвести хеширование (проверку) старой папки и будет докачивать только те серии, которых у вас ещё нет. Старые серии при этом не удаляются, а продолжают раздаваться! Eсли вы уже удалили старые серии, то предотвратить повторную закачку старых серий можно, отжав галочку в соответствующих местах при запуске нового торрента.
Скриншоты:



Все релизы "Возмездие / Revenge"

Смотреть Online

http://moonwalk.cc/video/fb0f5315da8e98d1/iframe
Детали торрента:
Название:Возмездие / Revenge (2014) WEB-DL [H.264/720p-LQ] (сезон 4, серии 1-10 из 22) NewStudio (Обновляемая)
Дата добавления:10 Дек 2014 12:50:11
Размер:14,7 GB
Раздают:1
Качают:0
Форум:Архив Сериалов

All rights reserved © 2015-2018