TORRENTS43.COM

Скачать Kaito - Less Time Until The End (2014) [FLAC|Lossless] <Ambient, Minimal, Downtempo>


Kaito - Less Time Until The End (2014)





Год: 2014
Жанр: Ambient, Minimal, Downtempo
Лейбл: Kompakt
Каталог#: KOMPAKT 292
Продолжительность: 01:06:26

Кодек: FLAC
Битрейт: Lossless
Тип рипа: tracks+.cue+log

Треклист:
01. Smile (06:55)
02. I'm Leaving Home (07:03)
03. Sky Is The Limit (06:39)
04. Will To Live (06:29)
05. Run Through The Road In The Fog (06:39)
06. Behind My Life (06:05)
07. Inner Space (06:39)
08. Until The End Of Time (05:47)
09. Dear Friends (05:07)
10. Star Of Snow (09:03)


Отчёт EAC:

Код:

Exact Audio Copy V1.0 beta 3 from 29. August 2011

EAC extraction logfile from 21. March 2014, 13:43

Kaito / Less Time Until The End

Used drive  : Optiarc DVD RW AD-7930V   Adapter: 0  ID: 1

Read mode               : Secure
Utilize accurate stream : Yes
Defeat audio cache      : Yes
Make use of C2 pointers : No

Read offset correction                      : 48
Overread into Lead-In and Lead-Out          : No
Fill up missing offset samples with silence : Yes
Delete leading and trailing silent blocks   : No
Null samples used in CRC calculations       : Yes
Used interface                              : Native Win32 interface for Win NT & 2000
Gap handling                                : Appended to previous track

Used output format              : User Defined Encoder
Selected bitrate                : 896 kBit/s
Quality                         : High
Add ID3 tag                     : No
Command line compressor         : C:\Program Files (x86)\Exact Audio Copy\Flac\flac.exe
Additional command line options : -8 -V -T "ARTIST=%artist%" -T "TITLE=%title%" -T "ALBUM=%albumtitle%" -T "DATE=%year%" -T "TRACKNUMBER=%tracknr%" -T "GENRE=%genre%" -T "PERFORMER=%albuminterpret%" -T "COMPOSER=%composer%" %haslyrics%--tag-from-file=LYRICS="%lyricsfile%"%haslyrics% -T "ALBUMARTIST=%albumartist%" -T "DISCNUMBER=%cdnumber%" -T "TOTALDISCS=%totalcds%" -T "TOTALTRACKS=%numtracks%" -T "COMMENT=%comment%" %source% -o %dest%

TOC of the extracted CD

     Track |   Start  |  Length  | Start sector | End sector
    ---------------------------------------------------------
        1  |  0:00.00 |  6:54.47 |         0    |    31096
        2  |  6:54.47 |  7:02.63 |     31097    |    62809
        3  | 13:57.35 |  6:38.53 |     62810    |    92712
        4  | 20:36.13 |  6:28.56 |     92713    |   121868
        5  | 27:04.69 |  6:38.71 |    121869    |   151789
        6  | 33:43.65 |  6:04.51 |    151790    |   179140
        7  | 39:48.41 |  6:38.61 |    179141    |   209051
        8  | 46:27.27 |  5:46.63 |    209052    |   235064
        9  | 52:14.15 |  5:06.51 |    235065    |   258065
       10  | 57:20.66 |  9:02.71 |    258066    |   298786

Track  1

     Filename C:\Users\pag\Desktop\MUSIC\1-01. Kaito - Smile.wav

     Pre-gap length  0:00:02.00

     Peak level 95.0 %
     Extraction speed 2.7 X
     Track quality 99.9 %
     Test CRC 2F4508F0
     Copy CRC 2F4508F0
     Track not present in AccurateRip database
     Copy OK

Track  2

     Filename C:\Users\pag\Desktop\MUSIC\1-02. Kaito - I'm Leaving Home.wav

     Pre-gap length  0:00:01.98

     Peak level 95.0 %
     Extraction speed 3.5 X
     Track quality 100.0 %
     Test CRC 3A51A86A
     Copy CRC 3A51A86A
     Track not present in AccurateRip database
     Copy OK

Track  3

     Filename C:\Users\pag\Desktop\MUSIC\1-03. Kaito - Sky Is The Limit.wav

     Pre-gap length  0:00:01.98

     Peak level 95.0 %
     Extraction speed 3.5 X
     Track quality 99.9 %
     Test CRC FA149720
     Copy CRC FA149720
     Track not present in AccurateRip database
     Copy OK

Track  4

     Filename C:\Users\pag\Desktop\MUSIC\1-04. Kaito - Will To Live.wav

     Pre-gap length  0:00:01.98

     Peak level 95.0 %
     Extraction speed 3.8 X
     Track quality 99.9 %
     Test CRC 6F5B5045
     Copy CRC 6F5B5045
     Track not present in AccurateRip database
     Copy OK

Track  5

     Filename C:\Users\pag\Desktop\MUSIC\1-05. Kaito - Run Through The Road In The Fog.wav

     Pre-gap length  0:00:01.98

     Peak level 95.0 %
     Extraction speed 4.5 X
     Track quality 100.0 %
     Test CRC FDE073EB
     Copy CRC FDE073EB
     Track not present in AccurateRip database
     Copy OK

Track  6

     Filename C:\Users\pag\Desktop\MUSIC\1-06. Kaito - Behind My Life.wav

     Pre-gap length  0:00:01.98

     Peak level 95.0 %
     Extraction speed 4.8 X
     Track quality 100.0 %
     Test CRC 192D48A7
     Copy CRC 192D48A7
     Track not present in AccurateRip database
     Copy OK

Track  7

     Filename C:\Users\pag\Desktop\MUSIC\1-07. Kaito - Inner Space.wav

     Pre-gap length  0:00:01.98

     Peak level 95.0 %
     Extraction speed 5.1 X
     Track quality 100.0 %
     Test CRC E461CBA2
     Copy CRC E461CBA2
     Track not present in AccurateRip database
     Copy OK

Track  8

     Filename C:\Users\pag\Desktop\MUSIC\1-08. Kaito - Until The End Of Time.wav

     Pre-gap length  0:00:01.98

     Peak level 95.0 %
     Extraction speed 5.2 X
     Track quality 100.0 %
     Test CRC EAEDF1DF
     Copy CRC EAEDF1DF
     Track not present in AccurateRip database
     Copy OK

Track  9

     Filename C:\Users\pag\Desktop\MUSIC\1-09. Kaito - Dear Friends.wav

     Pre-gap length  0:00:01.98

     Peak level 95.0 %
     Extraction speed 5.4 X
     Track quality 100.0 %
     Test CRC 93A09FE9
     Copy CRC 93A09FE9
     Track not present in AccurateRip database
     Copy OK

Track 10

     Filename C:\Users\pag\Desktop\MUSIC\1-10. Kaito - Star Of Snow.wav

     Pre-gap length  0:00:01.98

     Peak level 94.4 %
     Extraction speed 6.0 X
     Track quality 100.0 %
     Test CRC A948A150
     Copy CRC A948A150
     Track not present in AccurateRip database
     Copy OK

None of the tracks are present in the AccurateRip database

No errors occurred

End of status report

---- CUETools DB Plugin V2.1.3

[CTDB TOCID: uUi_dEWVNIsQhIBiNPXxDZybTw4-] disk not present in database, Submit result: uUi_dEWVNIsQhIBiNPXxDZybTw4- has been uploaded

==== Log checksum 12576F3EBFCC353C485728DA3088F8DDA69D110E452407103ACED09674CCBDF5 ====

Отчёт auCDtect Task manager:

Код:

-----------------------

DON'T MODIFY THIS FILE

-----------------------

PERFORMER: auCDtect Task Manager, ver. 1.6.0 RC1 build 1.6.0.1
Copyright (c) 2008-2010 y-soft. All rights reserved
http://y-soft.org

ANALYZER: auCDtect: CD records authenticity detector, version 0.8.2
Copyright (c) 2004 Oleg Berngardt. All rights reserved.
Copyright (c) 2004 Alexander Djourik. All rights reserved.

FILE: 10 - Star Of Snow.flac
  Size: 46130450 Hash: 2720FCB857B99A798F1A3E38429DD50D Accuracy: -m0
  Conclusion: CDDA 49%
  Signature: 9D04FE95D05C299C3E06FEFC56481EEB22B7B97A
FILE: 09 - Dear Friends.flac
  Size: 21137336 Hash: 8E3D3E5A1FA8E5DC89615080E720C251 Accuracy: -m0
  Conclusion: MPEG 89%
  Signature: 777641FECD1588516E3EEF0FB3478B5F72790AC5
FILE: 08 - Until The End Of Time.flac
  Size: 19278737 Hash: CE879C462EC089A5BDFA7A19F0CF336F Accuracy: -m0
  Conclusion: MPEG 100%
  Signature: 9F6F22CA2F48DB8A16C116D53EB0A6294B969CE9
FILE: 07 - Inner Space.flac
  Size: 25901616 Hash: A851ABC2C101A6B23105D60EAFF18325 Accuracy: -m0
  Conclusion: CDDA 100%
  Signature: BFF2E36BB73FA27F5CD84723EB7AA29A1647FBB4
FILE: 06 - Behind My Life.flac
  Size: 25444997 Hash: 2C63ABB80069100E284FA116C522CEDD Accuracy: -m0
  Conclusion: CDDA 49%
  Signature: FD2A5428DBD8F30DDEC0AF704B086683BA6BB3D8
FILE: 05 - Run Through The Road In The Fog.flac
  Size: 31180117 Hash: DDBDE500CAD0E7C84893A90D948D1A7E Accuracy: -m0
  Conclusion: CDDA 76%
  Signature: 5AC875DC5E83CEDAB0173323614C5D4B1892C3BB
FILE: 04 - Will To Live.flac
  Size: 32889334 Hash: 4FFA3AF031E8C098B721D2355E2201C6 Accuracy: -m0
  Conclusion: CDDA 100%
  Signature: 049CE63BE344198A35A4647565266FBBF27E1418
FILE: 03 - Sky Is The Limit.flac
  Size: 29350325 Hash: 9C0729A91666E70428AD95E81F2C7451 Accuracy: -m0
  Conclusion: CDDA 62%
  Signature: AF52727BF57BE9667EB688B6FA2B4770E0E72928
FILE: 02 - I'm Leaving Home.flac
  Size: 30955723 Hash: FD50CC6AB554A7A1404D0C9B54781C0C Accuracy: -m0
  Conclusion: MPEG 93%
  Signature: E88211FE4085E0F100826BA7D82B96348FB69994
FILE: 01 - Smile.flac
  Size: 32875214 Hash: B395F78EA543AD954DDF0C05C6DA610A Accuracy: -m0
  Conclusion: MPEG 95%
  Signature: 58AA52C57A9616B001D021CDBCDEEC5CECB25812

Содержание индексной карты .Cue:

Код:

REM GENRE "Ambient, Minimal, Downtempo"
REM DATE 2014
REM DISCID 890F8F0A
REM COMMENT "ExactAudioCopy v1.0b3"
PERFORMER "Kaito"
TITLE "Less Time Until The End"
FILE "01 - Smile.flac" WAVE
  TRACK 01 AUDIO
    TITLE "Smile"
    PERFORMER "Kaito"
    ISRC DEU671400033
    INDEX 01 00:00:00
  TRACK 02 AUDIO
    TITLE "I'm Leaving Home"
    PERFORMER "Kaito"
    ISRC DEU671400034
    INDEX 00 06:52:48
FILE "02 - I'm Leaving Home.flac" WAVE
    INDEX 01 00:00:00
  TRACK 03 AUDIO
    TITLE "Sky Is The Limit"
    PERFORMER "Kaito"
    ISRC DEU671400035
    INDEX 00 07:00:64
FILE "03 - Sky Is The Limit.flac" WAVE
    INDEX 01 00:00:00
  TRACK 04 AUDIO
    TITLE "Will To Live"
    PERFORMER "Kaito"
    ISRC DEU671400036
    INDEX 00 06:36:54
FILE "04 - Will To Live.flac" WAVE
    INDEX 01 00:00:00
  TRACK 05 AUDIO
    TITLE "Run Through The Road In The Fog"
    PERFORMER "Kaito"
    ISRC DEU671400037
    INDEX 00 06:26:57
FILE "05 - Run Through The Road In The Fog.flac" WAVE
    INDEX 01 00:00:00
  TRACK 06 AUDIO
    TITLE "Behind My Life"
    PERFORMER "Kaito"
    ISRC DEU671400038
    INDEX 00 06:36:72
FILE "06 - Behind My Life.flac" WAVE
    INDEX 01 00:00:00
  TRACK 07 AUDIO
    TITLE "Inner Space"
    PERFORMER "Kaito"
    ISRC DEU671400039
    INDEX 00 06:02:52
FILE "07 - Inner Space.flac" WAVE
    INDEX 01 00:00:00
  TRACK 08 AUDIO
    TITLE "Until The End Of Time"
    PERFORMER "Kaito"
    ISRC DEU671400040
    INDEX 00 06:36:62
FILE "08 - Until The End Of Time.flac" WAVE
    INDEX 01 00:00:00
  TRACK 09 AUDIO
    TITLE "Dear Friends"
    PERFORMER "Kaito"
    ISRC DEU671400041
    INDEX 00 05:44:64
FILE "09 - Dear Friends.flac" WAVE
    INDEX 01 00:00:00
  TRACK 10 AUDIO
    TITLE "Star Of Snow"
    PERFORMER "Kaito"
    ISRC DEU671400042
    INDEX 00 05:04:52
FILE "10 - Star Of Snow.flac" WAVE
    INDEX 01 00:00:00

Спектрограмма:





YouTube



Детали торрента:
Название:Kaito - Less Time Until The End (2014) [FLAC|Lossless] <Ambient, Minimal, Downtempo>
Дата добавления:13 Окт 2014 18:51:35
Размер:282 MB
Раздают:1
Качают:0
Форум:Easy listening (Lossless)

All rights reserved © 2015-2018