TORRENTS43.COM

Скачать Жены экстрасенсов. От рассвета до заката (2014.11.22) SATRip


Жены экстрасенсов. От рассвета до заката (2014.11.22) SATRip
Режиссер / Телекомпания: Первый канал

Русское название: Жены экстрасенсов. От рассвета до заката
Год выпуска: 2014
Жанр: Документальный
Выпущено: Россия

Описание:
Фильм о личной жизни российских экстрасенсов. Они появились в эпоху перемен, когда был дефицит веры и лекарств, собирали стадионы, гипнотизировали аудиторию, вводили всю страну в транс.
Слыли богатейшими людьми, но чем заплатили за это? В фильме впервые о своих мужьях расскажут их жены, многие годы остававшиеся в их тени.

Продолжительность: 00:49:59

Видеокодек: Xvid
Битрейт видео: ~1800 Кбит/сек
Размер кадра: 704 x 448
Качество видео: SATRip
Аудиокодек: AC-3, 2ch.
Битрейт аудио: 192 Кбит/сек

MediaInfo:

Формат : AVI
Формат/Информация : Audio Video Interleave
Размер файла : 716 Мбайт
Продолжительность : 49 м.
Общий поток : 2001 Кбит/сек
Программа кодирования : VirtualDubMod 1.5.10.3 | www.virtualdub-fr.org || (build 2550/release)
Библиотека кодирования : VirtualDubMod build 2550/release

Видео
Идентификатор : 0
Формат : MPEG-4 Visual
Профиль формата : Advanced Simple@L5
Параметр BVOP формата : 2
Параметр QPel формата : Нет
Параметр GMC формата : Без точки перехода
Параметр матрицы формата : Default (H.263)
Идентификатор кодека : XVID
Идентификатор кодека/Подсказка : XviD
Продолжительность : 49 м.
Битрейт : 1800 Кбит/сек
Ширина : 704 пикселя
Высота : 448 пикселей
Соотношение сторон : 16:10
Частота кадров : 25,000 кадров/сек
Цветовое пространство : YUV
Субдискретизация насыщенности : 4:2:0
Битовая глубина : 8 бит
Тип развёртки : Прогрессивная
Метод сжатия : С потерями
Бит/(Пиксели*Кадры) : 0.228
Размер потока : 644 Мбайт (90%)
Библиотека кодирования : XviD 1.2.1 (UTC 2008-12-04)

Аудио
Идентификатор : 1
Формат : AC-3
Формат/Информация : Audio Coding 3
Расширение режима : CM (complete main)
Параметр Endianness формата : Big
Идентификатор кодека : 2000
Продолжительность : 49 м.
Вид битрейта : Постоянный
Битрейт : 192 Кбит/сек
Каналы : 2 канала
Расположение каналов : Front: L R
Частота : 48,0 КГц
Битовая глубина : 16 бит
Метод сжатия : С потерями
Размер потока : 68,7 Мбайт (10%)
Выравнивание : Разделение по промежуткам
Продолжительность промежутка : 40 мс. (1,00 видеокадр)
Время предзагрузки промежутка : 500 мс.
Скриншоты:
Детали торрента:
Название:Жены экстрасенсов. От рассвета до заката (2014.11.22) SATRip
Дата добавления:22 Ноя 2014 11:28:57
Размер:716 MB
Раздают:
Качают:0
Форум:Документалистика и Телепередачи

All rights reserved © 2015-2018