TORRENTS43.COM

Скачать Бесконечная история / The NeverEnding Story (1984) BDRemux [1080p]


Бесконечная история / The NeverEnding Story (1984) BDRemux
Год выпуска: 1984
Производство: Германия (ФРГ), США
Жанр: Фэнтези, Приключения
Перевод: Многоголосый закадровый, профессиональный
Субтитры: Вшитые (отключаемые)
Язык субтитров: Русские

Режиссер: Вольфганг Петерсен
Продюсер: Бернд Айхингер
Актеры: Бэррет Оливер, Джералд МакРэйни, Драм Гаррет, Дэррил Кукси, Николас Гилберт, Томас Хилл, Дип Рой, Tilo Prückner, Моусес Ганн, Ной Хэтэуэй

Описание фильма:
Убегая от школьных хулиганов, 10-летний Бастиан спрятался в старой книжной лавке, где нашел таинственную книгу, изукрашенную орнаментом. Открыв ее, Бастиан попал в призрачный фантастический мир бегающих улиток, летающих собак, бескрылых Драконов Удачи, проказливых эльфов и ходячей каменоломни по имени Камнекус.
Но волшебной стране Фантазии и ее правительнице, Девочке-Императрице, угрожает страшная напасть под названием Ничто, порожденная «несбывшимися мечтами». Спасти Фантазию могут лишь юный воин Атрейю и сила воображения необыкновенного мечтателя Бастиана...



Продолжительность: 01:33:56
Качество видео: BDRemux

Видеокодек: VC-1
Битрейт видео: ~27311 kbps
Размер кадра: 1920x1080

Аудио1: Русский AC3, 6 ch, 384 Кбит/с
Аудио3: Английский DTS, 6 ch, 1510 кбит/c

MediaInfo:

General
Complete name : O:\The Neverending Story.1984.Blu-ray.1080p..mkv
Format : Matroska
File size : 19.6 GiB
Duration : 1h 33mn
Overall bit rate : 29.8 Mbps
Encoded date : UTC 2008-07-05 20:09:45
Writing application : mkvmerge v2.2.0 ('Turn It On Again') built on Apr 14 2008 23:34:53
Writing library : libebml v0.7.7 + libmatroska v0.8.1

Video
ID : 1
Format : VC-1
Format profile : AP@L3
Codec ID : WVC1
Codec ID/Hint : Microsoft
Duration : 1h 33mn
Bit rate : 27.3 Mbps
Width : 1 920 pixels
Height : 1 080 pixels
Display aspect ratio : 16:9
Frame rate : 23.976 fps
Resolution : 8 bits
Colorimetry : 4:2:0
Scan type : Progressive
Bits/(Pixel*Frame) : 0.550
Stream size : 17.9 GiB (92%)
Language : English

Audio #1
ID : 2
Format : AC-3
Format/Info : Audio Coding 3
Codec ID : A_AC3
Duration : 1h 33mn
Bit rate mode : Constant
Bit rate : 384 Kbps
Channel(s) : 6 channels
Channel positions : Front: L C R, Surround: L R, LFE
Sampling rate : 48.0 KHz
Stream size : 258 MiB (1%)
Language : Russian

Audio #2
ID : 3
Format : DTS
Format/Info : Digital Theater Systems
Codec ID : A_DTS
Duration : 1h 33mn
Bit rate mode : Constant
Bit rate : 1 510 Kbps
Channel(s) : 6 channels
Channel positions : Front: L C R, Surround: L R, LFE
Sampling rate : 48.0 KHz
Resolution : 24 bits
Stream size : 1 014 MiB (5%)
Language : English

Text #1
ID : 4
Format : UTF-8
Codec ID : S_TEXT/UTF8
Codec ID/Info : UTF-8 Plain Text

Text #2
ID : 5
Format : UTF-8
Codec ID : S_TEXT/UTF8
Codec ID/Info : UTF-8 Plain Text
Language : Russian

Menu
00:00:00.000 : en:00:00:00.000
00:02:06.543 : en:00:02:06.543
00:10:36.803 : en:00:10:36.803
00:12:30.583 : en:00:12:30.583
00:19:10.232 : en:00:19:10.232
00:23:00.713 : en:00:23:00.713
00:27:39.658 : en:00:27:39.658
00:30:27.951 : en:00:30:27.951
00:36:20.970 : en:00:36:20.970
00:40:14.162 : en:00:40:14.162
00:47:17.084 : en:00:47:17.084
00:50:26.315 : en:00:50:26.315
00:56:48.822 : en:00:56:48.822
00:59:52.589 : en:00:59:52.589
01:07:04.354 : en:01:07:04.354
01:10:27.557 : en:01:10:27.557
01:16:01.223 : en:01:16:01.223
01:18:53.187 : en:01:18:53.187
01:23:55.239 : en:01:23:55.239
01:31:08.797 : en:01:31:08.797

Скриншоты:

Смотреть Online

http://moonwalk.cc/video/241e6026d186d6fc/iframe
Детали торрента:
Название:Бесконечная история / The NeverEnding Story (1984) BDRemux [1080p]
Дата добавления:08 Дек 2014 22:19:16
Размер:19,6 GB
Раздают:
Качают:0
Форум:Зарубежные Фильмы для детей

All rights reserved © 2015-2018