TORRENTS43.COM

Скачать Россию уничтожают двойники (2014) HDTVRip [720p]


Россию уничтожают двойники (2014) HDTVRip [Xvid/720p-LQ]
Режиссер / Телекомпания: Светлана Пеунова
Год выпуска: 2014
Жанр: Документальный

Описание:
Двойники первых лиц государства - вымысел или реальность, в которую трудно поверить? И если от имени президентов вещают похожие на них двойники, - кто стоит за их спинами и на самом деле правит миром?

Продолжительность: 00:40:46
Качество видео: HDTVRip

Видеокодек: Xvid
Битрейт видео: ~2177 кб/с
Размер кадра: 1280x720
Аудиокодек: MP3
Битрейт аудио: 192kbps

Mediainfo:

Код:

Complete name                  : G:\Обманутая Россия AVI\Россию уничтожают двойники.avi
Format                         : AVI
Format/Info                    : Audio Video Interleave
File size                      : 695 MiB
Duration                       : 40mn 46s
Overall bit rate               : 2 382 Kbps
Writing application            : Lavf54.63.104

Video
ID                             : 0
Format                         : xvid
Codec ID                       : xvid
Duration                       : 40mn 46s
Bit rate                       : 2 177 Kbps
Width                          : 1 280 pixels
Height                         : 720 pixels
Display aspect ratio           : 16:9
Frame rate                     : 24.000 fps
Bits/(Pixel*Frame)             : 0.098
Stream size                    : 635 MiB (91%)

Audio
ID                             : 1
Format                         : MPEG Audio
Format version                 : Version 1
Format profile                 : Layer 3
Mode                           : Joint stereo
Mode extension                 : MS Stereo
Codec ID                       : 55
Codec ID/Hint                  : MP3
Duration                       : 40mn 46s
Bit rate mode                  : Constant
Bit rate                       : 192 Kbps
Channel(s)                     : 2 channels
Sampling rate                  : 48.0 KHz
Compression mode               : Lossy
Stream size                    : 56.0 MiB (8%)
Alignment                      : Aligned on interleaves
Interleave, duration           : 24 ms (0.58 video frame)
Writing library                : LAME3.99.5
Скриншоты:


Детали торрента:
Название:Россию уничтожают двойники (2014) HDTVRip [720p]
Дата добавления:11 Дек 2014 19:26:41
Размер:695 MB
Раздают:
Качают:0
Форум:Публицистика, политика и экономика

All rights reserved © 2015-2018