TORRENTS43.COM

Скачать Большой вопрос (2014.12.21) SATRip


Большой вопрос (2014.12.21) SATRip
Режиссер / Телекомпания: СТС

Русское название: Большой вопрос
Год выпуска: 2014
Жанр: Юмористическое шоу
Выпущено: Россия

Описание:
"Большой вопрос" добавляет к Юмору небольшой штрих и открывает новый телевизионный жанр – IQмористического шоу. Это единственный проект на российском телевидении, в котором можно одновременно узнать много нового и посмеяться. Это единственная телеигра, где выигрыш зависит не только от количества правильных ответов, но и от качества юмора. Что принесет победу – и есть "Большой вопрос"!

Ведущий: Василий Уткин

Продолжительность: 00:47:29

Видеокодек: Xvid
Битрейт видео: ~1800 Кбит/сек
Размер кадра: 720 x 400
Качество видео: SATRip
Аудиокодек: MP3, 2ch.
Битрейт аудио: 128 Кбит/сек

MediaInfo:

Формат : AVI
Формат/Информация : Audio Video Interleave
Размер файла : 658 Мбайт
Продолжительность : 47 м.
Общий поток : 1938 Кбит/сек
Библиотека кодирования : VirtualDub build 32817/release

Видео
Идентификатор : 0
Формат : MPEG-4 Visual
Профиль формата : Advanced Simple@L5
Параметр BVOP формата : 2
Параметр QPel формата : Нет
Параметр GMC формата : Без точки перехода
Параметр матрицы формата : Default (MPEG)
Идентификатор кодека : XVID
Идентификатор кодека/Подсказка : XviD
Продолжительность : 47 м.
Битрейт : 1800 Кбит/сек
Ширина : 720 пикселей
Высота : 400 пикселей
Соотношение сторон : 16:9
Частота кадров : 25,000 кадров/сек
Цветовое пространство : YUV
Субдискретизация насыщенности : 4:2:0
Битовая глубина : 8 бит
Тип развёртки : Прогрессивная
Метод сжатия : С потерями
Бит/(Пиксели*Кадры) : 0.250
Размер потока : 611 Мбайт (93%)
Библиотека кодирования : XviD 1.2.1 (UTC 2008-12-04)

Аудио
Идентификатор : 1
Формат : MPEG Audio
Версия формата : Version 1
Профиль формата : Layer 3
Режим : Joint stereo
Расширение режима : MS Stereo
Идентификатор кодека : 55
Идентификатор кодека/Подсказка : MP3
Продолжительность : 47 м.
Вид битрейта : Постоянный
Битрейт : 128 Кбит/сек
Каналы : 2 канала
Частота : 48,0 КГц
Метод сжатия : С потерями
Размер потока : 43,5 Мбайт (7%)
Выравнивание : Разделение по промежуткам
Продолжительность промежутка : 40 мс. (1,00 видеокадр)
Время предзагрузки промежутка : 500 мс.
Скриншоты:

Смотреть Online

http://moonwalk.cc/serial/b9ad3d25039dbfd84518edf53952a6e6/iframe
Детали торрента:
Название:Большой вопрос (2014.12.21) SATRip
Дата добавления:21 Дек 2014 19:14:32
Размер:658 MB
Раздают:
Качают:0
Форум:Архив Юмора

All rights reserved © 2015-2018