TORRENTS43.COM

Скачать VA - Стол заказов RU.TV 2014 part. 4 (2014) WEB-DL [1080p]


VA - Стол заказов RU.TV 2014 part. 4 (2014) WEB-DL (1080p)
Исполнитель: Various Artists
Название: Стол заказов RU.TV 2014 part. 4
Год выхода: 2014
Жанр: Dance, Pop, Trance, House, Rap
Кол-во клипов: 31

Содержание:
Четвёртая часть сборника самых популярных клипов телеканала RU.TV за 2014 год!

Продолжительность: ~02:00:38
Качество видео: WEB-DL [1080p]

Формат: MPEG-4
Видеокодек: AVC (H.264)
Битрейт видео: ~8500kbps
Размер кадра: 1920x1080
Аудиокодек: AAC, 2 ch
Битрейт аудио: 320kbps

Треклист:
01. Дмитрий Колдун - Почему
02. Нюша - Цунами
03. Стас Пьеха - Счастье
04. Егор Крид - Самая-самая
05. Потап и Настя Каменских - Уди-уди
06. Николай Басков; Софи - Ты моё счастье
07. MBand - Она вернётся

Треклист- продолжение

08. Тимур Родригез - С днём рожденья
09. Джиган; Юлия Савичева - Любить больше нечем
10. МОТ; ВИА Гра - Кислород
11. Анна Семенович - Я за тобой
12. Богдан Титомир - Девочка в красном (новая версия)
13. Анита Цой - Звонки
14. A-Dessa; Борис Моисеев - Я бальник
15. Юлия Беретта - Стриптиз
16. Дискотека Авария - Девушка за рулём
17. Elvira T - Выше нуля
18. Время и Стекло - Забери
19. Родион Газманов - Гравитация
20. Слава - Спелый мой
21. Иванушки - Лучший день
22. НеАнгелы - Знаешь
23. Сати Казанова; Арсениум - До рассвета
24. L'One - Океан
25. Алекс Малиновский - Я люблю и от этого легче
26. Наргиз - Я не твоя
27. Мачете - Свобода и любовь
28. Лаурита - Пилот
29. Илья Зудин - Улетай
30. EMIN - Я лучше всех живу
31. Тина Кароль - Мы не останемся друзьями

MediaInfo:

Общее
Полное имя : D:\Стол Заказов 4\04. Егор Крид - Самая-самая.mp4
Формат : MPEG-4
Профиль формата : Base Media / Version 2
Идентификатор кодека : mp42
Размер файла : 226 Мбайт
Продолжительность : 3 м. 56 с.
Режим общего битрейта : Переменный
Общий поток : 8033 Кбит/сек
Дата кодирования : UTC 2014-10-16 10:04:59
Дата пометки : UTC 2014-10-16 10:05:02
©TIM : 01:00:00:00
©TSC : 25
©TSZ : 1

Видео
Идентификатор : 1
Формат : AVC
Формат/Информация : Advanced Video Codec
Профиль формата : Main@L4.2
Параметр CABAC формата : Да
Параметр ReFrames формата : 3 кадра
Параметр GOP формата : M=4, N=25
Идентификатор кодека : avc1
Идентификатор кодека/Информация : Advanced Video Coding
Продолжительность : 3 м. 56 с.
Вид битрейта : Переменный
Битрейт : 7712 Кбит/сек
Максимальный битрейт : 12,0 Мбит/сек
Ширина : 1920 пикселей
Высота : 1080 пикселей
Соотношение сторон : 16:9
Режим частоты кадров : Постоянный
Частота кадров : 25,000 кадров/сек
Стандарт вещания : PAL
Цветовое пространство : YUV
Субдискретизация насыщенности : 4:2:0
Битовая глубина : 8 бит
Тип развёртки : Прогрессивная
Бит/(Пиксели*Кадры) : 0.149
Размер потока : 217 Мбайт (96%)
Язык : English
Дата кодирования : UTC 2014-10-16 10:04:59
Дата пометки : UTC 2014-10-16 10:04:59

Аудио
Идентификатор : 2
Формат : AAC
Формат/Информация : Advanced Audio Codec
Профиль формата : LC
Идентификатор кодека : 40
Продолжительность : 3 м. 56 с.
Продолжительность оригинала : 3 м. 56 с.
Вид битрейта : Переменный
Битрейт : 317 Кбит/сек
Максимальный битрейт : 413 Кбит/сек
Каналы : 2 канала
Расположение каналов : Front: L R
Частота : 48,0 КГц
Метод сжатия : С потерями
Размер потока : 8,94 Мбайт (4%)
Размер потока оригинала : 8,94 Мбайт (4%)
Язык : English
Дата кодирования : UTC 2014-10-16 10:04:59
Дата пометки : UTC 2014-10-16 10:04:59
Скриншоты:

Детали торрента:
Название:VA - Стол заказов RU.TV 2014 part. 4 (2014) WEB-DL [1080p]
Дата добавления:30 Дек 2014 16:34:18
Размер:7,49 GB
Раздают:1
Качают:0
Форум:Музыкальные клипы

All rights reserved © 2015-2018