TORRENTS43.COM

Скачать Profileschool | Портретная ретушь: интенсив (2014) PCRec [H.264/720p-LQ]


Profileschool | Портретная ретушь: интенсив (2014) PCRec [H.264/720p-LQ]
Автор (режиссер): Александр Чалдрян / Profileschool
Жанр: Ретушь фотографий
Продолжительность: 04:10:46
Качество видео: PCRec
Видеокодек: H.264
Битрейт видео: ~153 Kbps, 15fps
Размер кадра: 1280x720
Аудиокодек: AAC
Битрейт аудио: 48 kb/s (LC), 2 Ch, 44100 Hz

Описание:
Онлайн мастер-класс Саши Чалрдяна построен на освоении последовательных процессов обработки портретов в Photoshop и является интенсивом по портретной ретуши.
Интенсив по портретной ретуши был создан для тех фотографов, которые занимаются ретушью портретов на любительском уровне и хотели бы значительно продвинуться в осмыслении всего процесса в целом и последовательности действий в нем. Портретная ретушь – это комплексная задача, состоящая из типичных шагов, повторяющихся в каждом конкретном случае. В чем же сложность их применения?

Те, кто посещал онлайн курс Коммерческая ретушь, получили основательную подготовку по портретной ретуши, как одному из направлений коммерческой, и имеют достаточные компетенции для самостоятельного упорядочивания шагов в этом процессе и выстраивания правильных последовательностей. Посетив специализированный интенсив, вы услышите много знакомых уже выводов, которые сможете закрепить, сконцентрировавшись на ретуши портретов отдельно. Те же из вас, кто подготовлен на онлайн курсах Базовый и Продвинутый Фотошоп, но не посещал курс «Коммерческая ретушь», получат специфичные и новые для себя навыки.

Задачей интенсива ставится обучение оптимальной последовательности работы, что значительно сокращает энергозатраты, экономит время и улучшает производительность. Вы научитесь видеть проблему и будете точно знать, в какой момент обработки браться за нее.

Медиа Инфо:

General
Complete name : H:\Александр Чалдрян - МК Портретная ретушь интенсив (2014)\Video.mp4
Format : MPEG-4
Format profile : Base Media / Version 2
Codec ID : mp42
File size : 369 MiB
Duration : 4h 10mn
Overall bit rate : 206 Kbps
Encoded date : UTC 2014-12-26 22:16:52
Tagged date : UTC 2014-12-26 22:16:52

Video
ID : 1
Format : AVC
Format/Info : Advanced Video Codec
Format profile : High@L3.1
Format settings, CABAC : Yes
Format settings, ReFrames : 4 frames
Codec ID : avc1
Codec ID/Info : Advanced Video Coding
Duration : 4h 10mn
Source duration : 4h 10mn
Bit rate : 153 Kbps
Width : 1 280 pixels
Height : 720 pixels
Display aspect ratio : 16:9
Frame rate mode : Constant
Frame rate : 15.000 fps
Color space : YUV
Chroma subsampling : 4:2:0
Bit depth : 8 bits
Scan type : Progressive
Bits/(Pixel*Frame) : 0.011
Stream size : 275 MiB (75%)
Source stream size : 275 MiB (75%)
Language : English
Encoded date : UTC 2014-12-26 22:16:52
Tagged date : UTC 2014-12-26 22:16:52
Color primaries : BT.709
Transfer characteristics : BT.709
Matrix coefficients : BT.709
mdhd_Duration : 15032038

Audio
ID : 2
Format : AAC
Format/Info : Advanced Audio Codec
Format profile : LC
Codec ID : 40
Duration : 4h 10mn
Source duration : 4h 10mn
Bit rate mode : Constant
Bit rate : 48.0 Kbps
Channel count : 2 channels
Channel positions : Front: L R
Sampling rate : 44.1 KHz
Compression mode : Lossy
Stream size : 89.8 MiB (24%)
Source stream size : 89.8 MiB (24%)
Language : English
Encoded date : UTC 2014-12-26 22:16:52
Tagged date : UTC 2014-12-26 22:16:52
mdhd_Duration : 15144259
Скриншоты:


Детали торрента:
Название:Profileschool | Портретная ретушь: интенсив (2014) PCRec [H.264/720p-LQ]
Дата добавления:30 Дек 2014 23:42:48
Размер:431 MB
Раздают:21
Качают:0
Форум:Фотография, Видео

All rights reserved © 2015-2018