TORRENTS43.COM

Скачать Жанна Агузарова - Лучшие песни ("Звездная серия") (2001) [APE|Lossless]<Rock>


Жанна Агузарова - Лучшие песни (сборник "Звездная серия") (2001).

Год: 2001
Жанр: Rock (Русский рок, Московский рок)
Продолжительность: 01:19:46

Кодек: lossless,Monkey's Audio:Extra High, (образ диска .APE+.Cue).
Битрейт: ~850 kbps.

DiscID:6C12B217 , проверить можно здесь.

О исполнителе:
Услышать звонкий, энергичный голос Жанны - настоящая радость для всех, кто любит музыку. За всеми слухами и сплетнями, которые окружали экстравагантную певицу в последние годы, на второй план отошло то, что Агузарова записала 10 альбомов, спела в кино, снялась в двух фильмах, сняла 10 клипов и продала 5000000 пластинок. Также Жанна Агузарова удостоена золотой медали в Корее за вклад в дело мира.

О сборнике:
Даннная компиляция включает в себя записи разных лет, - золотые хиты группы Браво и шлягеры, в lossless формате.Мой личный рип с лицензионного диска, лог и проверка диска на 100% соответствие CDDA см. ниже, в дополнительной информации.

Трек лист:
01. Открытие (01:48)
02. Ленинградский рок-н-ролл (02:18)
03. А снег идет (02:16)
04. Зимушка (03:12)
05. Прогулка (04:25)
06. Мне хорошо рядом с тобой (05:43)
07. Марина (04:25)
08. Вернись ко мне (04:12)
09. Верю я (03:01)
10. В городе моем (04:18)
11. Старый отель (03:54)
12. Будь со мной (02:48)
13. Чудесная страна (03:11)
14. Желтые ботинки (03:27)
15. Черный кот (02:50)
16. Ты, только ты (03:50)
17. Кошки (02:48)
18. Как быть? (03:20)
19. Неудачники (03:42)
20. Прикосновение к Есенину (03:29)
21. Орел (02:56)
22. Звезда (03:17)
23. Луч (03:40)

О Диске (доп. информация):

Лог:

Exact Audio Copy V0.99 prebeta 3 from 28. July 2007

Отчёт EAC об извлечении, выполненном 8. июня 2008, 12:21

Жанна Агузарова / Звездная серия

Дисковод: _NEC DVD_RW ND-3550A Adapter: 0 ID: 3

Режим чтения : Достоверность
Использование точного потока : Да
Отключение кэша аудио : Нет
Использование указателей C2 : Да

Комбинированное смещение чтения/записи : 0
Способность читать области Lead-in и Lead-out : Нет
Заполнение пропущенных сэмплов тишиной : Да
Удаление блоков с тишиной в начале и конце : Нет
При вычислениях CRC использовались нулевые сэмплы : Да
Интерфейс : Встроенный Win32-интерфейс для Win NT/2000

Выходной формат : Внутренние WAV-операции
Формат сэмплов : 44.100 Гц; 16 бит; стерео

TOC извлечённого CD

Трек | Старт | Длительность | Начальный сектор | Конечный сектор
---------------------------------------------------------------------
1 | 0:00.00 | 1:50.61 | 0 | 8310
2 | 1:50.61 | 2:20.08 | 8311 | 18818
3 | 4:10.69 | 2:18.68 | 18819 | 29236
4 | 6:29.62 | 3:14.18 | 29237 | 43804
5 | 9:44.05 | 4:27.66 | 43805 | 63895
6 | 14:11.71 | 5:45.69 | 63896 | 89839
7 | 19:57.65 | 4:28.01 | 89840 | 109940
8 | 24:25.66 | 4:14.61 | 109941 | 129051
9 | 28:40.52 | 3:03.18 | 129052 | 142794
10 | 31:43.70 | 4:20.62 | 142795 | 162356
11 | 36:04.57 | 3:56.53 | 162357 | 180109
12 | 40:01.35 | 2:50.10 | 180110 | 192869
13 | 42:51.45 | 3:13.27 | 192870 | 207371
14 | 46:04.72 | 3:29.24 | 207372 | 223070
15 | 49:34.21 | 2:52.35 | 223071 | 236005
16 | 52:26.56 | 3:52.10 | 236006 | 253415
17 | 56:18.66 | 2:50.48 | 253416 | 266213
18 | 59:09.39 | 3:22.37 | 266214 | 281400
19 | 62:32.01 | 3:44.22 | 281401 | 298222
20 | 66:16.23 | 3:31.64 | 298223 | 314111
21 | 69:48.12 | 2:58.68 | 314112 | 327529
22 | 72:47.05 | 3:19.56 | 327530 | 342510
23 | 76:06.61 | 3:40.10 | 342511 | 359020

Характеристики диапазона извлечения и сообщения об ошибках

Выбранный диапазон

Имя файла F:\Documents and Settings\dynamics\Desktop\Жанна Агузарова - Звездная серия (2002) [ape+cue+cover]\Жанна Агузарова - Звездная серия.wav

Пиковый уровень 100.0 %
Качество диапазона 100.0 %
CRC копии A7D0BBFA
Копирование... OK

Ошибок не произошло

Конец отчёта

отчет Tau Analizer:

Лейблы:
©PAO 2002.
©S.T.R. Records 2002.

Детали торрента:
Название:Жанна Агузарова - Лучшие песни ("Звездная серия") (2001) [APE|Lossless]<Rock>
Дата добавления:08 Июн 2008 12:05:41
Размер:505 MB
Раздают:4
Качают:0
Форум:Русский Рок (Lossless)

All rights reserved © 2015-2018