TORRENTS43.COM

Скачать Вести в 20-00. Большие Вести. Россия 1 (28.01.2015) SATRip


Вести в 20-00. Большие Вести. Россия 1 (28.01.2015) SATRip
Телекомпания: Россия 1
Жанр: Телепередача

Описание:
«Вести» — информационная телевизионная программа Всероссийской государственной телерадиокомпании. Выходит в эфир на каналах «Россия-24», «Россия-1», «РТР-Планета» и «РТР-Беларусь». Производятся Дирекцией информационных программ Государственной телекомпании «Россия». Самые последние новости в России и в мире - смотрите в последних выпусках новостей телеканала «Россия».

Ведущий: Татьяна Ремезова, Эрнест Мацкявичюс, Мария Ситтель, Андрей Кондрашов

Продолжительность: 00:44:00
Качество видео: SATRip

Видеокодек: Xvid
Битрейт видео: ~1782 Кбит/сек
Размер кадра: 720x400
Аудиокодек: MP3
Битрейт аудио: 128 Кбит/сек

Mediainfo

Общее
Полное имя : F:\видео\фильмы\Вести в 20-00\Вести 2000 (28.01.2015) © ВГТРК.avi
Полное имя : F:\видео\фильмы\Вести в 20-00\Вести 2000 (28.01.2015) © ВГТРК.avi Формат : AVI
Формат : AVI Формат/Информация : Audio Video Interleave
Формат/Информация : Audio Video Interleave Размер файла : 610 Мбайт
Размер файла : 610 Мбайт Продолжительность : 44 м.
Продолжительность : 44 м. Общий поток : 1916 Кбит/сек
Общий поток : 1916 Кбит/сек
Видео
Идентификатор : 0
Идентификатор : 0 Формат : MPEG-4 Visual
Формат : MPEG-4 Visual Профиль формата : Advanced Simple@L5
Профиль формата : Advanced Simple@L5 Параметр BVOP формата : Нет
Параметр BVOP формата : Нет Параметр QPel формата : Нет
Параметр QPel формата : Нет Параметр GMC формата : Без точки перехода
Параметр GMC формата : Без точки перехода Параметр матрицы формата : Default (H.263)
Параметр матрицы формата : Default (H.263) Идентификатор кодека : XVID
Идентификатор кодека : XVID Идентификатор кодека/Подсказка : XviD
Идентификатор кодека/Подсказка : XviD Продолжительность : 44 м.
Продолжительность : 44 м. Битрейт : 1781 Кбит/сек
Битрейт : 1781 Кбит/сек Ширина : 720 пикселей
Ширина : 720 пикселей Высота : 400 пикселей
Высота : 400 пикселей Соотношение сторон : 16:9
Соотношение сторон : 16:9 Частота кадров : 25,000 кадров/сек
Частота кадров : 25,000 кадров/сек Цветовое пространство : YUV
Цветовое пространство : YUV Субдискретизация насыщенности : 4:2:0
Субдискретизация насыщенности : 4:2:0 Битовая глубина : 8 бит
Битовая глубина : 8 бит Тип развёртки : Прогрессивная
Тип развёртки : Прогрессивная Метод сжатия : С потерями
Метод сжатия : С потерями Бит/(Пиксели*Кадры) : 0.247
Бит/(Пиксели*Кадры) : 0.247 Размер потока : 566 Мбайт (93%)
Размер потока : 566 Мбайт (93%) Библиотека кодирования : XviD 62
Библиотека кодирования : XviD 62
Аудио
Идентификатор : 1
Идентификатор : 1 Формат : MPEG Audio
Формат : MPEG Audio Версия формата : Version 1
Версия формата : Version 1 Профиль формата : Layer 3
Профиль формата : Layer 3 Идентификатор кодека : 55
Идентификатор кодека : 55 Идентификатор кодека/Подсказка : MP3
Идентификатор кодека/Подсказка : MP3 Продолжительность : 44 м.
Продолжительность : 44 м. Вид битрейта : Постоянный
Вид битрейта : Постоянный Битрейт : 128 Кбит/сек
Битрейт : 128 Кбит/сек Каналы : 2 канала
Каналы : 2 канала Частота : 44,1 КГц
Частота : 44,1 КГц Метод сжатия : С потерями
Метод сжатия : С потерями Размер потока : 40,7 Мбайт (7%)
Размер потока : 40,7 Мбайт (7%) Выравнивание : Разделение по промежуткам
Выравнивание : Разделение по промежуткам Продолжительность промежутка : 80 мс. (2,00 видеокадра)
Продолжительность промежутка : 80 мс. (2,00 видеокадра)
Скриншоты:



Детали торрента:
Название:Вести в 20-00. Большие Вести. Россия 1 (28.01.2015) SATRip
Дата добавления:28 Янв 2015 18:51:54
Размер:610 MB
Раздают:
Качают:0
Форум:Тележурналистика

All rights reserved © 2015-2018