TORRENTS43.COM

Скачать Василиса (2014) BDRip [1080p]


Василиса (2014) BDRip [1080p]
Производство: Россия, Всемирные Русские Студии
Жанр: Исторический, мелодрама

Режиссер: Антон Сиверс
Продюсер: Андрей Смирнов, Юрий Сапронов, Михаил Вавилов
Актеры: Светлана Ходченкова, Дмитрий Соломыкин, Жером Кузан, Кристина Кузьмина, Игорь Черневич, Андрей Ильин, Ирина Розанова, Илья Носков, Андрей Носков, Жоанн Морио

Описание фильма:
Он дворянин, а она — крепостная крестьянка… Им не суждено быть вместе. Возможно, так и закончилась бы эта любовная история, если бы не война. Наполеон вторгся в пределы Российской Империи, и этот день изменил привычный уклад и сословные предрассудки. Мир больше никогда не станет прежним. Война пишет новую историю любви.

Перевод: Не требуется (язык русский)



Дата российской премьеры: 4 декабря 2014

Продолжительность: 01:35:53
Качество видео: BDRip [1080p]

Видеокодек: MPEG-4 AVC
Битрейт видео: ~14600 Кбит/с
Размер кадра: 1920x1080

Аудио: Русский DTS, 6 ch, 1509 Кбит/с | Лицензия

MediaInfo:

General
Complete name : E:\Vasil1sa.2014.BDRip.1080p.mkv
Format : Matroska
File size : 11.4 GiB
Duration : 1h 39mn
Overall bit rate : 16.4 Mbps
Encoded date : UTC 2015-01-29 18:00:22
Writing application : mkvmerge v7.4.0 ('Circles') 64bit built on Dec 12 2014 12:19:56
Writing library : libebml v1.3.0 + libmatroska v1.4.1

Video
ID : 1
Format : AVC
Format/Info : Advanced Video Codec
Format profile : High@L4.1
Format settings, CABAC : Yes
Format settings, ReFrames : 4 frames
Muxing mode : Container profile=Unknown@4.1
Codec ID : V_MPEG4/ISO/AVC
Duration : 1h 39mn
Bit rate : 14.6 Mbps
Width : 1 920 pixels
Height : 1 080 pixels
Display aspect ratio : 16:9
Frame rate : 24.000 fps
Resolution : 8 bits
Colorimetry : 4:2:0
Scan type : Progressive
Bits/(Pixel*Frame) : 0.293
Stream size : 10.2 GiB (89%)
Writing library : x264 core 144 r2525 40bb568
Encoding settings : cabac=1 / ref=1 / deblock=1:0:0 / analyse=0x3:0x113 / me=dia / subme=2 / psy=1 / psy_rd=1.00:0.00 / mixed_ref=0 / me_range=16 / chroma_me=1 / trellis=0 / 8x8dct=1 / cqm=0 / deadzone=21,11 / fast_pskip=1 / chroma_qp_offset=-2 / threads=12 / lookahead_threads=4 / sliced_threads=0 / nr=0 / decimate=1 / interlaced=0 / bluray_compat=0 / constrained_intra=0 / bframes=3 / b_pyramid=2 / b_adapt=1 / b_bias=0 / direct=1 / weightb=1 / open_gop=0 / weightp=1 / keyint=240 / keyint_min=24 / scenecut=40 / intra_refresh=0 / rc=cqp / mbtree=0 / qp=20 / ip_ratio=1.40 / pb_ratio=1.30 / aq=0

Audio
ID : 2
Format : DTS
Format/Info : Digital Theater Systems
Codec ID : A_DTS
Duration : 1h 39mn
Bit rate mode : Constant
Bit rate : 1 510 Kbps
Channel(s) : 6 channels
Channel positions : Front: L C R, Surround: L R, LFE
Sampling rate : 48.0 KHz
Resolution : 24 bits
Stream size : 1.05 GiB (9%)
Language : Russian

Скриншоты:

Смотреть Online

http://37.220.36.15/video/2cae4062de29beea/iframe
Детали торрента:
Название:Василиса (2014) BDRip [1080p]
Дата добавления:30 Янв 2015 17:49:56
Размер:11,4 GB
Раздают:
Качают:0
Форум:Отечественные Фильмы (HD)

All rights reserved © 2015-2018