TORRENTS43.COM

Скачать Православный остров Кефалония (1999) DVD5


Православный остров Кефалония
Телекомпания: Г. Пунинский
Жанр: Документальный

Описание:
Фильм рассказывает о чудесах, происходящих в праздник Успения Божией Матери, на острове Кефалония в Ионическом море (Греция), о торжествах в небесного покровителя острова, преподобного Герасима, его нетленных мощах, находящихся в храме. Великими чудесами Бог награждает островитян за горячую веру и благочестие.

В другом качестве

Продолжительность: 00:50:34
Качество видео: DVD5

Видеокодек: MPEG 2, PAL
Битрейт видео: ~9800 Кбит/сек
Размер кадра: 720/576
Аудиокодек: MP2, 2ch
Битрейт аудио: 224 Кбит/сек, 48.0 КГц

Mediainfo:

Код:

Общее
Полное имя                       : F:\Pravoslavnyi_ ostrov_ Kefalonij\видео\VTS_01_1.VOB
Формат                           : MPEG-PS
Размер файла                     : 1024 Мбайт
Продолжительность                : 14 м.
Общий поток                      : 9982 Кбит/сек
Библиотека кодирования           : Created with Nero

Видео
Идентификатор                    : 224 (0xE0)
Формат                           : MPEG Video
Версия формата                   : Version 2
Профиль формата                  : Main@Main
Параметр BVOP формата            : Да
Параметр матрицы формата         : По умолчанию
Параметры GOP формата            : M=3, N=15
Продолжительность                : 14 м.
Вид битрейта                     : Переменный
Битрейт                          : 9800 Кбит/сек
Ширина                           : 720 пикс.
Высота                           : 576 пикс.
Соотношение сторон               : 4:3
Частота кадров                   : 25,000 кадр/сек
Стандарт вещания                 : PAL
Цветовое пространство            : YUV
Подвыборка цветности             : 4:2:0
Битовая глубина                  : 8 бит
Тип развёртки                    : Чересстрочная
Порядок развёртки                : Нижнее поле первое
Метод сжатия                     : С потерями
Бит/(Пиксели*Кадры)              : 0.945
Размер потока                    : 981 Мбайт (96%)
Библиотека кодирования           : Ahead Nero

Аудио
Идентификатор                    : 192 (0xC0)
Формат                           : MPEG Audio
Версия формата                   : Version 1
Профиль формата                  : Layer 2
Продолжительность                : 14 м.
Вид битрейта                     : Постоянный
Битрейт                          : 224 Кбит/сек
Каналы                           : 2 канала
Частота                          : 48,0 КГц
Метод сжатия                     : С потерями
Задержка видео                   : -40 мс.
Размер потока                    : 23,0 Мбайт (2%)
Cкриншоты:


Детали торрента:
Название:Православный остров Кефалония (1999) DVD5
Дата добавления:09 Мар 2015 15:52:37
Размер:3,47 GB
Раздают:
Качают:0
Форум:Религии и культы

All rights reserved © 2015-2018